img image001 image001 image001 image001 image001 image001 image001 image001 image001 image001 image001 image001 image001 image001 image001

Planets Sun Sun Sun
Статистика раздачи
Автор: Nickolas3434 | Размер: 745.97 МБ | Добавлен: 20 мар 2015, 19:15
Раздают: 90    Качают: 18
Скачать торрент
Скачать торрент
Описание торрента

СообщениеДобавлено: 20 мар 2015, 19:15 

Информация о фильме
Название: Споры
Год выхода: 2011
Жанр: ужасы, фантастика
Режиссер: Максим Дьячук
В ролях: Наталья Рыбьякова, Олег Бурлаков, Леонид Гусаров, Валерий Кузьменко, Елена Щербакова, Владимир Кокин, Николай Дубков, Валерий Крячек, Илья Козлик, Алёна Дрёмина
О фильме:
Группа друзей выезжает из города на пикник, по пути они наталкиваются на старый советский завод. Завод уже давно находится в запустении, что заинтересовало их ещё больше… Но любопытство сталкивает их лицом к лицу с невообразимой опасностью, с ужасными существами. Выясняется, что инопланетные споры, оказавшиеся там вследствии падения на Землю небольшого метеорита, быстро размножаются и приобретают чудовищные формы, когда соприкасаются с любым биологическим видом на планете. Кто из друзей, находящихся под угрозой будет бороться? Кто выживет? И чем всё закончится?

Страна: Россия, США
Студия: Орбита
Продолжительность: 01:12:34
Перевод: Не требуется
Файл
Кодек: XviD
Качество: HDRip
Видео: 688x384, 1300 kbps, 25 fps, 0,197 Bits/(Pixel*Frame)
Звук: MP3, 48 kHz, 2 ch, 128 kbps
Субтитры: Нет
General
Complete name : I:Spores.2011.HDrip_by_Bathory.avi
Format : AVI
Format/Info : Audio Video Interleave
File size : 746 MiB
Duration : 1h 12mn
Overall bit rate : 1 437 Kbps
Writing application : VirtualDubMod 1.5.10.3 | www.virtualdub-fr.org || (build 2550/release)
Writing library : VirtualDubMod build 2550/release
Video
ID : 0
Format : MPEG-4 Visual
Format profile : Advanced Simple@L5
Format settings, BVOP : 1
Format settings, QPel : No
Format settings, GMC : No warppoints
Format settings, Matrix : Custom
Codec ID : XVID
Codec ID/Hint : XviD
Duration : 1h 12mn
Bit rate : 1 300 Kbps
Width : 688 pixels
Height : 384 pixels
Display aspect ratio : 16:9
Frame rate : 25.000 fps
Color space : YUV
Chroma subsampling : 4:2:0
Bit depth : 8 bits
Scan type : Progressive
Compression mode : Lossy
Bits/(Pixel*Frame) : 0.197
Stream size : 674 MiB (90%)
Writing library : XviD 73
Audio
ID : 1
Format : MPEG Audio
Format version : Version 1
Format profile : Layer 3
Codec ID : 55
Codec ID/Hint : MP3
Duration : 1h 12mn
Bit rate mode : Constant
Bit rate : 128 Kbps
Channel(s) : 2 channels
Sampling rate : 48.0 KHz
Compression mode : Lossy
Stream size : 66.4 MiB (9%)
Alignment : Aligned on interleaves
Interleave, duration : 40 ms (1.00 video frame)
Interleave, preload duration : 504 ms
Writing library : LAME3.99r
Encoding settings : -m s -V 4 -q 2 -lowpass 17 -b 128


Релиз от:
Автор рипа: _Bathory_



   Похожие торренты   Торрент   Размер 
В этой теме нет новых непрочитанных сообщений. Споры (2011) HDRip-AVC от -=HD-NET=-

48 | 4

1.07 ГБ

В этой теме нет новых непрочитанных сообщений. Споры (2011) BDRip

273 | 18

1.18 ГБ

В этой теме нет новых непрочитанных сообщений. Споры (2011) BDRip 1080p

35 | 8

7.58 ГБ

В этой теме нет новых непрочитанных сообщений. Владимир Высоцкий. Так оставьте ненужные споры... (2011) SATRemux от SilverCinema

22 | 5

812.76 МБ

В этой теме нет новых непрочитанных сообщений. Всё хорошо, что хорошо кончается 2011 / All's Well End's Well 2011 / Ji keung hei si 2011 (2011) HDRip от BTT-TEAM

4 | 2

2.05 ГБ

В этой теме нет новых непрочитанных сообщений. Видеоклипы. Еврохит топ - 40 Video Clips [12.02.2011] (2011) HDRip

31 | 17

2.28 ГБ

В этой теме нет новых непрочитанных сообщений. 4 дня в мае (2011) HDRip

36 | 4

1.46 ГБ




Вы не можете начинать темы
Вы не можете отвечать на сообщения
Вы не можете редактировать свои сообщения
Вы не можете удалять свои сообщения
Вы не можете добавлять вложения

Перейти:  
Для Мосгорсуда, Роскомнадзора и рекламодателей: mosgorsud-torrent[собачка]yandex.ru
Настройки
ppkBB3cker v.2 © 2008-2014 @ PPK
[ Time : 0.022s | 14 Queries | GZIP : Off ]
CGP [Extreme] output time : 0.00020s | 0 Queries | GZIP : Off

Торрент трекер RUTOR.IN, Не можете зайти на rutor.org? Какой новый адрес рутор? Какое зеркало рутор? Не работает rutor.org и зеркала? Тогда наш торрент специально для вас. Rutor.in неофициальное зеркало rutor. В случае если у Вас заблокирован rutor или вдруг Вы не можете на него зайти, то Вы без труда сможете скачать бесплатно и без рекламы последние новинки кино, игр, сериалов и прочего у нас, на Rutor.in. Не нужно использовать прокси, чтобы зайти на рутор, достаточно воспользоваться нашим ресурсом. Все новые фильмы, игры, сериалы, книги и музыка за 2013 и 2014 годы через торрент бесплатно. Скачивайте фильмы в хорошем качестве, игры для пк, xbox, playstation без регистрации. У нас вы найдете новые Зарубежные сериалы и Русские сериалы 2013, 2014, 2015 годов. Оставайтесь с нами, качайте любимые фильмы, игры, сериалы, книги и музыку.