img image001 image001 image001 image001 image001 image001 image001 image001 image001 image001 image001 image001 image001 image001 image001

Planets Sun Sun Sun
Статистика раздачи
Автор: Nickolas3434 | Размер: 1.45 ГБ | Добавлен: 23 мар 2015
Раздают: 22    Качают: 8
Скачать торрент
Скачать торрент
Описание торрента

СообщениеДобавлено: 23 мар 2015 

Страна: СССР
Производство: Мосфильм
Жанр: драма, исторический
Год выпуска: 1943
Продолжительность: 01:42:35
Перевод: Не требуется
Cубтитры: нет
Оригинальная аудиодорожка: русский
Режиссер: Владимир Петров
В ролях:
Алексей Дикий, Семен Межинский, Евгений Калужский, Серго Закариадзе, Николай Охлопков, Сергей Блинников, Владимир Готовцев, Аркадий Поляков, Николай Бриллинг, Борис Чирков, Михаил Пуговкин, Иван Скуратов, Александр Степанов, Николай Рыжов, Гавриил Терехов...
Описание:
Вступление Наполеона в Россию, Бородинское сражение, пожар Москвы, Тарутинский маневр, партизанская война и, наконец, бегство французской армии из России — все главные эпизоды Отечественной войны 1812 года...





Источник: DVD5 R5
Качество видео: DVDRip
Формат видео: AVI
Видео: 688x512 (4:3), 25 fps, XviD ~ 1828 kbps avg, 0.208 bit/pixel
Аудио: 48 kHz, Dolby Digital AC3 2.0, 192 kbps
Раздача от:
Общее
Полное имя : Kutuzov.1943.DVDRip_[New-team]_by_AVP_Studio.avi
Формат : AVI
Формат/Информация : Audio Video Interleave
Размер файла : 1,45 Гбайт
Продолжительность : 1 ч. 42 м.
Общий поток : 2030 Кбит/сек
Программа кодирования : VirtualDubModRus 1.5.10.2 (build 2542/release)
Библиотека кодирования : VirtualDubMod build 2542/release
Видео
Идентификатор : 0
Формат : MPEG-4 Visual
Профиль формата : Advanced Simple@L5
Параметр BVOP формата : 1
Параметр QPel формата : Нет
Параметр GMC формата : Без точки перехода
Параметр матрицы формата : Выборочная
Идентификатор кодека : XVID
Идентификатор кодека/Подсказка : XviD
Продолжительность : 1 ч. 42 м.
Битрейт : 1828 Кбит/сек
Ширина : 688 пикселей
Высота : 512 пикселей
Соотношение сторон : 4:3
Частота кадров : 25,000 кадров/сек
Цветовое пространство : YUV
Субдискретизация насыщенности : 4:2:0
Битовая глубина : 8 бит
Тип развёртки : Прогрессивная
Метод сжатия : С потерями
Бит/(Пиксели*Кадры) : 0.208
Размер потока : 1,31 Гбайт (90%)
Библиотека кодирования : XviD 73
Аудио
Идентификатор : 1
Формат : AC-3
Формат/Информация : Audio Coding 3
Расширение режима : CM (complete main)
Параметр Endianness формата : Big
Идентификатор кодека : 2000
Продолжительность : 1 ч. 42 м.
Вид битрейта : Постоянный
Битрейт : 192 Кбит/сек
Каналы : 2 канала
Расположение каналов : Front: L R
Частота : 48,0 КГц
Битовая глубина : 16 бит
Метод сжатия : С потерями
Размер потока : 141 Мбайт (9%)
Выравнивание : Разделение по промежуткам
Продолжительность промежутка : 40 мс. (1,00 видеокадр)
Время предзагрузки промежутка : 500 мс





   Похожие торренты   Торрент   Размер 
В этой теме нет новых непрочитанных сообщений. Кутузов (1943) DVDRip-AVC от New-Team

40 | 9

1.46 ГБ

В этой теме нет новых непрочитанных сообщений. Кутузов (1943) DVDRip от New-Team

8 | 6

745.68 МБ

В этой теме нет новых непрочитанных сообщений. Кутузов (1943) DVDRip

44 | 12

1.37 ГБ

В этой теме нет новых непрочитанных сообщений. Кутузов (1943) DVDRip от KinoZalSat

50 | 5

1.37 ГБ

В этой теме нет новых непрочитанных сообщений. Фронт (1943) DVDRip от New-Team

24 | 6

1.46 ГБ

В этой теме нет новых непрочитанных сообщений. Жди меня (1943) DVDRip-AVC от New-Team

9 | 4

1.09 ГБ

В этой теме нет новых непрочитанных сообщений. Мы с Урала (1943) DVDRip от New-Team

7 | 7

744.99 МБ




Вы не можете начинать темы
Вы не можете отвечать на сообщения
Вы не можете редактировать свои сообщения
Вы не можете удалять свои сообщения
Вы не можете добавлять вложения

Перейти:  
Для Мосгорсуда, Роскомнадзора и рекламодателей: mosgorsud-torrent[собачка]yandex.ru
 Вход
ppkBB3cker v.2 © 2008-2014 @ PPK
[ Time : 0.037s | 16 Queries | GZIP : Off ]

cron