img image001 image001 image001 image001 image001 image001 image001 image001 image001 image001 image001 image001 image001 image001 image001

Planets Sun Sun Sun
Статистика раздачи
Автор: Nickolas3434 | Размер: 1.42 ГБ | Добавлен: 25 мар 2015
Раздают: 7    Качают: 5
Скачать торрент
Скачать торрент
Описание торрента

СообщениеДобавлено: 25 мар 2015 

Страна: СССР
Производство: Союздетфильм
Жанр: драма, приключения, военный, биография
Год выпуска: 1943
Продолжительность: 01:28:21
Перевод: Не требуется
Cубтитры: нет
Оригинальная аудиодорожка: русский
Режиссер: Амо Бек-Назаров
В ролях:
Рачия Нерсесян, Давид Малян, Авет Аветисян, Левон Зорабян, В. Маргуни, Владимир Ершов, Т. Махмурова, Иван Перестиани, Евгений Самойлов, Григор Аветян, М. Костанян, Фрунзе Довлатян, Т. Айвазян, Асмик, Л. Шахпаронян, Д. Погосян...
Описание:
В 1943 году, в годину тяжелых испытаний для нашей Родины на Ереванской киностудии был создан историко-биографический фильм «Давид-Бек» о героической борьбе армянского народа под руководством выдающегося полководца XVIII века Давида-Бека против персидских завоевателей.





Источник: DVD5
Качество видео: DVDRip
Формат видео: AVI
Видео: 688x512 (4:3), 25 fps, XviD ~ 2159 kbps avg, 0.245 bit/pixel
Аудио: 48 kHz, Dolby Digital AC3 2.0, 128 kbps
Раздача от:
Общее
Полное имя : David.Bek.1943.DVDRip_[New-team]_by_AVP_Studio.avi
Формат : AVI
Формат/Информация : Audio Video Interleave
Размер файла : 1,42 Гбайт
Продолжительность : 1 ч. 28 м.
Общий поток : 2296 Кбит/сек
Программа кодирования : VirtualDubModRus 1.5.10.2 (build 2542/release)
Библиотека кодирования : VirtualDubMod build 2542/release
Видео
Идентификатор : 0
Формат : MPEG-4 Visual
Профиль формата : Advanced Simple@L5
Параметр BVOP формата : 1
Параметр QPel формата : Нет
Параметр GMC формата : Без точки перехода
Параметр матрицы формата : Выборочная
Идентификатор кодека : XVID
Идентификатор кодека/Подсказка : XviD
Продолжительность : 1 ч. 28 м.
Битрейт : 2159 Кбит/сек
Ширина : 688 пикселей
Высота : 512 пикселей
Соотношение сторон : 4:3
Частота кадров : 25,000 кадров/сек
Цветовое пространство : YUV
Субдискретизация насыщенности : 4:2:0
Битовая глубина : 8 бит
Тип развёртки : Прогрессивная
Метод сжатия : С потерями
Бит/(Пиксели*Кадры) : 0.245
Размер потока : 1,33 Гбайт (94%)
Библиотека кодирования : XviD 73
Аудио
Идентификатор : 1
Формат : AC-3
Формат/Информация : Audio Coding 3
Расширение режима : CM (complete main)
Параметр Endianness формата : Big
Идентификатор кодека : 2000
Продолжительность : 1 ч. 28 м.
Вид битрейта : Постоянный
Битрейт : 128 Кбит/сек
Каналы : 1 канал
Расположение каналов : Front: C
Частота : 48,0 КГц
Битовая глубина : 16 бит
Метод сжатия : С потерями
Размер потока : 80,9 Мбайт (6%)
Выравнивание : Разделение по промежуткам
Продолжительность промежутка : 40 мс. (1,00 видеокадр)
Время предзагрузки промежутка : 500 мс





   Похожие торренты   Торрент   Размер 
В этой теме нет новых непрочитанных сообщений. Давид Бек (1943) DVDRip-AVC от New-Team

9 | 4

1.46 ГБ

В этой теме нет новых непрочитанных сообщений. Давид Бек (1943) DVDRip от New-Team

4 | 4

746.64 МБ

В этой теме нет новых непрочитанных сообщений. Давид и Вирсавия / Давид и Бадшиба / David and Bathsheba (1951) DVDRip от Generalfilm

185 | 5

1.37 ГБ

В этой теме нет новых непрочитанных сообщений. Сталинград (1943) DVDRip от New-Team

178 | 5

748.29 МБ

В этой теме нет новых непрочитанных сообщений. Сталинград (1943) DVDRip от New-Team

152 | 3

1.09 ГБ

В этой теме нет новых непрочитанных сообщений. Во имя Родины (1943) DVDRip-AVC от New-Team

7 | 3

1.09 ГБ

В этой теме нет новых непрочитанных сообщений. Актриса (1943) DVDRip-AVC от New-Team

6 | 19

1.09 ГБ




Вы не можете начинать темы
Вы не можете отвечать на сообщения
Вы не можете редактировать свои сообщения
Вы не можете удалять свои сообщения
Вы не можете добавлять вложения

Перейти:  
Для Мосгорсуда, Роскомнадзора и рекламодателей: mosgorsud-torrent[собачка]yandex.ru
 Вход
ppkBB3cker v.2 © 2008-2014 @ PPK
[ Time : 0.043s | 16 Queries | GZIP : Off ]

cron