img image001 image001 image001 image001 image001 image001 image001 image001 image001 image001 image001 image001 image001 image001 image001

Planets Sun Sun Sun
Статистика раздачи
Автор: Nickolas3434 | Размер: 1.37 ГБ | Добавлен: 26 мар 2015
Раздают: 109    Качают: 16
Скачать торрент
Скачать торрент
Описание торрента

СообщениеДобавлено: 26 мар 2015 


Страна: СССР
Производство: Фора-фильм
Жанр: Приключения
Год выпуска: 1989
Продолжительность: 01:24:20
Язык: Русский
Режиссер: Хабиб Файзиев
В ролях: Назим Туляходжаев, Андрей Подошьян, Елена Никифорова, Рустам Уразаев, Юрий Парамонов, Алишер Пирмухамедов, Оксана Калиберда, Александр Соловьёв ст., Олег Измайлов, Анатолий Кузнецов, Виктор Шульгин, Мария Виноградова, Матлюба Алимова
Описание: Трое друзей, вернувшись из Афганистана, устав от крови и ужасов войны, желают только одного — обрести, наконец, покой. Но на Родине многое изменилось, и их родной город стал совсем другим. Добиться покоя можно только доказав свою силу и победив в борьбе с молодежной бандитской организацией, терроризирующей жителей города...

Исходник: DVD-5
Тип релиза: DVDRip
Контейнер: AVI
Видео:640x480 (1.33:1), 23.976 fps, XviD build 50 ~2118 kbps avg, 0.29 bit/pixel
Аудио 1: 48 kHz, AC3 Dolby Digital, 2/0 (L,R) ch, ~192 kbps
Общее
Полное имя : D:ААА2ШАКАЛЫ.avi
Формат : AVI
Формат/Информация : Audio Video Interleave
Размер файла : 1,37 Гбайт
Продолжительность : 1 ч. 24 м.
Общий поток : 2320 Кбит/сек
Программа кодирования : VirtualDubMod 1.5.10.3 | www.virtualdub-fr.org || (build 2550/release)
Библиотека кодирования : VirtualDubMod build 2550/release
Видео
Идентификатор : 0
Формат : MPEG-4 Visual
Профиль формата : Advanced Simple@L5
Параметр BVOP формата : 2
Параметр QPel формата : Нет
Параметр GMC формата : Без точки перехода
Параметр матрицы формата : Default (MPEG)
Идентификатор кодека : XVID
Идентификатор кодека/Подсказка : XviD
Продолжительность : 1 ч. 24 м.
Битрейт : 2119 Кбит/сек
Ширина : 640 пикселей
Высота : 480 пикселей
Соотношение сторон : 4:3
Частота кадров : 23,976 кадра/сек
Цветовое пространство : YUV
Субдискретизация насыщенности : 4:2:0
Битовая глубина : 8 бит
Тип развёртки : Прогрессивная
Метод сжатия : С потерями
Бит/(Пиксели*Кадры) : 0.288
Размер потока : 1,25 Гбайт (91%)
Библиотека кодирования : XviD 1.2.1 (UTC 2008-12-04)
Аудио
Идентификатор : 1
Формат : AC-3
Формат/Информация : Audio Coding 3
Расширение режима : CM (complete main)
Параметр Endianness формата : Big
Идентификатор кодека : 2000
Продолжительность : 1 ч. 24 м.
Вид битрейта : Постоянный
Битрейт : 192 Кбит/сек
Каналы : 2 канала
Расположение каналов : Front: L R
Частота : 48,0 КГц
Битовая глубина : 16 бит
Метод сжатия : С потерями
Размер потока : 116 Мбайт (8%)
Выравнивание : Разделение по промежуткам
Продолжительность промежутка : 42 мс. (1,00 видеокадр)
Время предзагрузки промежутка : 500 мс.


Релиз:



   Похожие торренты   Торрент   Размер 
В этой теме нет новых непрочитанных сообщений. Шакалы / The Jackals (1967) DVDRip | SATKUR

0 | 0

742.55 МБ

В этой теме нет новых непрочитанных сообщений. Skid Row, Ozzy Osbourne, Gorky Park, Cinderella - Moscow Music Peace Festival 1989 (1989) MP3

25 | 18

209.63 МБ

В этой теме нет новых непрочитанных сообщений. Псы (1989) DVDRip

48 | 4

1.37 ГБ

В этой теме нет новых непрочитанных сообщений. Гу-га (1989) DVDRip

21 | 5

1.36 ГБ

В этой теме нет новых непрочитанных сообщений. Псы (1989) DVDRip

42 | 5

1.47 ГБ

В этой теме нет новых непрочитанных сообщений. Гу-га (1989) DVDRip от olegek70

73 | 9

2.18 ГБ

В этой теме нет новых непрочитанных сообщений. Всегда / Always (1989) DVDRip

21 | 7

2.28 ГБ




Вы не можете начинать темы
Вы не можете отвечать на сообщения
Вы не можете редактировать свои сообщения
Вы не можете удалять свои сообщения
Вы не можете добавлять вложения

Перейти:  
Для Мосгорсуда, Роскомнадзора и рекламодателей: mosgorsud-torrent[собачка]yandex.ru
 Вход
ppkBB3cker v.2 © 2008-2014 @ PPK
[ Time : 0.089s | 14 Queries | GZIP : Off ]

Торрент трекер RUTOR.IN, Не можете зайти на rutor.org? Какой новый адрес рутор? Какое зеркало рутор? Не работает rutor.org и зеркала? Тогда наш торрент специально для вас. Rutor.in неофициальное зеркало rutor. В случае если у Вас заблокирован rutor или вдруг Вы не можете на него зайти, то Вы без труда сможете скачать бесплатно и без рекламы последние новинки кино, игр, сериалов и прочего у нас, на Rutor.in. Не нужно использовать прокси, чтобы зайти на рутор, достаточно воспользоваться нашим ресурсом. Все новые фильмы, игры, сериалы, книги и музыка за 2013 и 2014 годы через торрент бесплатно. Скачивайте фильмы в хорошем качестве, игры для пк, xbox, playstation без регистрации. У нас вы найдете новые Зарубежные сериалы и Русские сериалы 2013, 2014, 2015 годов. Оставайтесь с нами, качайте любимые фильмы, игры, сериалы, книги и музыку.