img image001 image001 image001 image001 image001 image001 image001 image001 image001 image001 image001 image001 image001 image001 image001

Planets Sun Sun Sun
Статистика раздачи
Автор: Nickolas3434 | Размер: 753.34 МБ | Добавлен: 27 мар 2015
Раздают: 13    Качают: 8
Скачать торрент
Скачать торрент
Описание торрента

СообщениеДобавлено: 27 мар 2015 

Страна: СССР
Производство: ЦОКС
Жанр: драма, военный
Год выпуска: 1943
Продолжительность: 01:49:49
Перевод: Не требуется
Cубтитры: нет
Оригинальная аудиодорожка: русский
Режиссер: Георгий Васильев, Сергей Васильев
В ролях:
Борис Бабочкин, Борис Блинов, Борис Чирков, Борис Дмоховский, Николай Крючков, Лев Свердлин, Василий Ванин, Павел Волков, Борис Жуковский, А. Чепурнов...
Описание:
По одноименной пьесе А.Корнейчука.
В фильме подвергались критике старые генералы - герои Гражданской войны, не умевшие воевать в новых условиях. Даже сами фамилии главных героев - Горлов и Огнев - стали нарицательными. Первый - символ воинствующего невежества и карьеризма, второй - ума и мужества. Между ними произошёл острейший конфликт и было показано, что военные методы Горлова неминуемо ведут к поражению в силу их отсталости и бездарности...





Источник: DVD5 R5
Качество видео: DVDRip
Формат видео: AVI
Видео: 576x432 (4:3), 25 fps, XviD ~ 821 kbps avg, 0.132 bit/pixel
Аудио: 48 kHz, MP3 2.0, 128 kbps
Раздача от:
Общее
Полное имя : Front.1943.DVDRip-745_[New-team]_by_AVP_Studio.avi
Формат : AVI
Формат/Информация : Audio Video Interleave
Размер файла : 753 Мбайт
Продолжительность : 1 ч. 49 м.
Общий поток : 959 Кбит/сек
Программа кодирования : VirtualDubModRus 1.5.10.2 (build 2542/release)
Библиотека кодирования : VirtualDubMod build 2542/release
Видео
Идентификатор : 0
Формат : MPEG-4 Visual
Профиль формата : Advanced Simple@L5
Параметр BVOP формата : 1
Параметр QPel формата : Нет
Параметр GMC формата : Без точки перехода
Параметр матрицы формата : Выборочная
Идентификатор кодека : XVID
Идентификатор кодека/Подсказка : XviD
Продолжительность : 1 ч. 49 м.
Битрейт : 821 Кбит/сек
Ширина : 576 пикселей
Высота : 432 пикселя
Соотношение сторон : 4:3
Частота кадров : 25,000 кадров/сек
Цветовое пространство : YUV
Субдискретизация насыщенности : 4:2:0
Битовая глубина : 8 бит
Тип развёртки : Прогрессивная
Метод сжатия : С потерями
Бит/(Пиксели*Кадры) : 0.132
Размер потока : 645 Мбайт (86%)
Библиотека кодирования : XviD 73
Аудио
Идентификатор : 1
Формат : MPEG Audio
Версия формата : Version 1
Профиль формата : Layer 3
Идентификатор кодека : 55
Идентификатор кодека/Подсказка : MP3
Продолжительность : 1 ч. 49 м.
Вид битрейта : Постоянный
Битрейт : 128 Кбит/сек
Каналы : 2 канала
Частота : 48,0 КГц
Метод сжатия : С потерями
Размер потока : 101 Мбайт (13%)
Выравнивание : Соединение по промежуткам
Продолжительность промежутка : 40 мс. (1,00 видеокадр)
Время предзагрузки промежутка : 504 мс.
Библиотека кодирования : LAME3.99r
Настройки программы : -m s -V 4 -q 2 -lowpass 17 -b 128





   Похожие торренты   Торрент   Размер 
В этой теме нет новых непрочитанных сообщений. Фронт (1943) DVDRip от New-Team

24 | 7

1.46 ГБ

В этой теме нет новых непрочитанных сообщений. Фронт (1943) DVDRip-AVC от New-Team

27 | 7

1.46 ГБ

В этой теме нет новых непрочитанных сообщений. Фронт (1943) DVDRip от Русфильм

40 | 6

1.37 ГБ

В этой теме нет новых непрочитанных сообщений. Михайл Жирохов - Сражение за Донбасс. Миус-фронт. 1941-1943 (2011) PDF

2 | 15

53.42 МБ

В этой теме нет новых непрочитанных сообщений. Радуга (1943) DVDRip-AVC от New-Team

18 | 4

1.46 ГБ

В этой теме нет новых непрочитанных сообщений. Во имя Родины (1943) DVDRip от New-Team

17 | 16

1.09 ГБ

В этой теме нет новых непрочитанных сообщений. Мы с Урала (1943) DVDRip от New-Team

7 | 7

744.99 МБ




Вы не можете начинать темы
Вы не можете отвечать на сообщения
Вы не можете редактировать свои сообщения
Вы не можете удалять свои сообщения
Вы не можете добавлять вложения

Перейти:  
Для Мосгорсуда, Роскомнадзора и рекламодателей: mosgorsud-torrent[собачка]yandex.ru
 Вход
ppkBB3cker v.2 © 2008-2014 @ PPK
[ Time : 0.048s | 15 Queries | GZIP : Off ]

Торрент трекер RUTOR.IN, Не можете зайти на rutor.org? Какой новый адрес рутор? Какое зеркало рутор? Не работает rutor.org и зеркала? Тогда наш торрент специально для вас. Rutor.in неофициальное зеркало rutor. В случае если у Вас заблокирован rutor или вдруг Вы не можете на него зайти, то Вы без труда сможете скачать бесплатно и без рекламы последние новинки кино, игр, сериалов и прочего у нас, на Rutor.in. Не нужно использовать прокси, чтобы зайти на рутор, достаточно воспользоваться нашим ресурсом. Все новые фильмы, игры, сериалы, книги и музыка за 2013 и 2014 годы через торрент бесплатно. Скачивайте фильмы в хорошем качестве, игры для пк, xbox, playstation без регистрации. У нас вы найдете новые Зарубежные сериалы и Русские сериалы 2013, 2014, 2015 годов. Оставайтесь с нами, качайте любимые фильмы, игры, сериалы, книги и музыку.