img image001 image001 image001 image001 image001 image001 image001 image001 image001 image001 image001 image001 image001 image001 image001

Planets Sun Sun Sun
Статистика раздачи
Автор: Nickolas3434 | Размер: 13.63 ГБ | Добавлен: 29 мар 2015
Раздают: 4    Качают: 6
Скачать торрент
Скачать торрент
Описание торрента

СообщениеДобавлено: 29 мар 2015 

Информация о фильме
Оригинальное название: Беременный
Год выпуска: 2011
Жанр: Комедия, фэнтези
Режиссёр: Сарик Андреасян
В ролях: Дмитрий Дюжев, Михаил Галустян, Анна Седокова, Вилле Хаапасало, Светлана Ходченкова, Дмитрий Шаракоис, Дмитрий Хрусталёв, Виктор Васильев, Валентин Смирнитский, Людмила Артемьева
О фильме: Главный герой - ведущий новостей на музыкальном канале Сергей Добролюбов. Своим консерватизмом он явно выбивается из коллектива модного канала. Его скепсис по отношению к чему-то новому - повод для насмешек коллег. Он точно не "звезда" канала. Сергей с женой очень хотят ребенка, но у них есть с этим проблемы. Помочь им может чудо, но Сергей в чудеса не верит... до определенного момента. Чудесным образом желание Сергея иметь ребенка исполняется… он беременеет?! Теперь уже нашему герою предстоит выступить перед близкими живым доказательством того, что чудеса случаются! Особенно символично, что эту новость жена, родители, брат, друг Жора узнали за ужином в честь Дня защитников Отечества. У последнего оказался вполне практичный подход к чуду. Жора убедил Сергея, что беременность не повод скрываться, а возможность обрести славу и деньги. Шоу «Беременный» становится самым популярным телевизионным проектом, а его главный герой - Сергей Добролюбов - настоящей звездой. Но совмещение статусов "мужчины, ждущего ребенка" и "звезды" оказывается непростой задачей.

Выпущено: Россия, Enjoy Movies
Продолжительность: 01:23:50
Перевод: Не требуется
Файл
Качество: Blu-ray Remux (1080p)
Видео: MPEG-2, 22.1 Мбит/с, 1920x1080 (16:9), 24 кадр/с
Аудио: Русский, Dolby AC3, 48000 Гц, 640 Кбит/с, 6 каналов (5.1)
Навигация по главам: Есть (Сохранены оригинальные чаптеры как на Blu-ray)
General
Unique ID : 171433848710664591643387431167885431505 (0x80F8F551454A9C4F8FED04759C45D2D1)
Complete name : Beremennyy.2011.BDRemux.1080p.mkv
Format : Matroska
File size : 13.6 GiB
Duration : 1h 23mn
Overall bit rate : 23.3 Mbps
Movie name : Беременный (2011) Blu-ray Remux (1080p)
Encoded date : UTC 2015-03-27 20:07:56
Writing application : mkvmerge v6.1.0 ('Old Devil') built on Mar 4 2013 09:10:42
Writing library : libebml v1.3.0 + libmatroska v1.4.0
Video
ID : 1
Format : MPEG Video
Format version : Version 2
Format profile : Main@High
Format settings, BVOP : No
Format settings, Matrix : Default
Codec ID : V_MPEG2
Codec ID/Info : MPEG 1 or 2 Video
Duration : 1h 23mn
Bit rate mode : Variable
Bit rate : 22.1 Mbps
Nominal bit rate : 25.0 Mbps
Width : 1 920 pixels
Height : 1 080 pixels
Display aspect ratio : 16:9
Frame rate : 24.000 fps
Color space : YUV
Chroma subsampling : 4:2:0
Bit depth : 8 bits
Compression mode : Lossy
Bits/(Pixel*Frame) : 0.445
Stream size : 13.0 GiB (95%)
Title : Беременный (2011)
Language : Russian
Audio
ID : 2
Format : AC-3
Format/Info : Audio Coding 3
Mode extension : CM (complete main)
Codec ID : A_AC3
Duration : 1h 23mn
Bit rate mode : Constant
Bit rate : 640 Kbps
Channel(s) : 6 channels
Channel positions : Front: L C R, Side: L R, LFE
Sampling rate : 48.0 KHz
Bit depth : 16 bits
Compression mode : Lossy
Stream size : 384 MiB (3%)
Title : Original
Language : Russian
Menu
00:00:00.000 : en:Chapter 01
00:00:21.458 : en:Chapter 02
00:17:19.375 : en:Chapter 03
00:32:40.125 : en:Chapter 04
00:48:33.583 : en:Chapter 05
01:04:54.541 : en:Chapter 06
01:20:54.500 : en:Chapter 07



   Похожие торренты   Торрент   Размер 
В этой теме нет новых непрочитанных сообщений. Беременный (2011) BDRip от ivandubskoj | Лицензия

20 | 10

701.46 МБ

В этой теме нет новых непрочитанных сообщений. Самый лучший фильм 3-ДЭ (2011) Blu-ray Remux 1080p от ivandubskoj | Лицензия

107 | 10

19.18 ГБ

В этой теме нет новых непрочитанных сообщений. Беременный (2011) Blu-ray 1080p | Лицензия

4 | 3

21.69 ГБ

В этой теме нет новых непрочитанных сообщений. Ласковый май (2009) Blu-ray Remux (1080p) от ivandubskoj | Лицензия

43 | 15

17.15 ГБ

В этой теме нет новых непрочитанных сообщений. Код апокалипсиса (2007) Blu-Ray Remux 1080p от ivandubskoj | Лицензия

17 | 4

20.51 ГБ

В этой теме нет новых непрочитанных сообщений. О, счастливчик! (2009) Blu-Ray Remux 1080p от ivandubskoj | Лицензия

16 | 5

18.18 ГБ

В этой теме нет новых непрочитанных сообщений. Переводчица / The Interpreter (2005) Blu-Ray EUR Remux 1080p от ivandubskoj | D, P, P2 | Лицензия

37 | 11

30.87 ГБ




Вы не можете начинать темы
Вы не можете отвечать на сообщения
Вы не можете редактировать свои сообщения
Вы не можете удалять свои сообщения
Вы не можете добавлять вложения

Перейти:  
Для Мосгорсуда, Роскомнадзора и рекламодателей: mosgorsud-torrent[собачка]yandex.ru
 Вход
ppkBB3cker v.2 © 2008-2014 @ PPK
[ Time : 1.167s | 15 Queries | GZIP : On ]

Торрент трекер RUTOR.IN, Не можете зайти на rutor.org? Какой новый адрес рутор? Какое зеркало рутор? Не работает rutor.org и зеркала? Тогда наш торрент специально для вас. Rutor.in неофициальное зеркало rutor. В случае если у Вас заблокирован rutor или вдруг Вы не можете на него зайти, то Вы без труда сможете скачать бесплатно и без рекламы последние новинки кино, игр, сериалов и прочего у нас, на Rutor.in. Не нужно использовать прокси, чтобы зайти на рутор, достаточно воспользоваться нашим ресурсом. Все новые фильмы, игры, сериалы, книги и музыка за 2013 и 2014 годы через торрент бесплатно. Скачивайте фильмы в хорошем качестве, игры для пк, xbox, playstation без регистрации. У нас вы найдете новые Зарубежные сериалы и Русские сериалы 2013, 2014, 2015 годов. Оставайтесь с нами, качайте любимые фильмы, игры, сериалы, книги и музыку.