img image001 image001 image001 image001 image001 image001 image001 image001 image001 image001 image001 image001 image001 image001 image001

Planets Sun Sun Sun
Статистика раздачи
Автор: Nickolas3434 | Размер: 744.25 МБ | Добавлен: 29 мар 2015
Раздают: 69    Качают: 4
Скачать торрент
Скачать торрент
Описание торрента

СообщениеДобавлено: 29 мар 2015 

Страна: СССР
Производство: Студия Алма-Ата, Центральная объединенная кино-студия художественных фильмов
Жанр: драма, военный
Год выпуска: 1943
Продолжительность: 01:14:28
Перевод: Не требуется
Cубтитры: нет
Оригинальная аудиодорожка: русский
Режиссер: Фридрих Эрмлер
В ролях:
Вера Марецкая, Николай Боголюбов, Лидия Смирнова, Пётр Алейников, Александр Виолинов, Инна Фёдорова, Владимир Гремин, Борис Дмоховский, Юрий Коршун, И. Медведко, Евгений Немченко, Иван Пельтцер, Георгий Семёнов, Алексей Чепурнов, Елизавета Кузюрина, Владимир Уральский, Александра Данилова, Валерий Медведев, Татьяна Пельтцер...
Описание:
Радостной и счастливой была жизнь Паши Лукьяновой. Но началась война. В первый же день погиб ее муж. Маленького сына растерзали гитлеровцы. И тогда Прасковья ушла в лес, организовала партизанский отряд и начала беспощадно мстить врагу за сына, за мужа, за Родину…





Источник: DVD5 R5
Качество видео: DVDRip-AVC
Формат видео: MKV
Видео: 680->754x566 (4:3), 25 fps, H264 ~ 1267 kbps avg, 0.132 bit/pixel
Аудио: 48 kHz, Dolby Digital AC3 2.0, 128 kbps
Раздача от:
Общее
Полное имя : Ona.zashchishchayet.rodinu.1943.DVDRip-AVC_[New-team]_by_AVP_Studio.mkv
Формат : Matroska
Версия формата : Version 2
Размер файла : 744 Мбайт
Продолжительность : 1 ч. 14 м.
Общий поток : 1397 Кбит/сек
Дата кодирования : UTC 2015-03-27 17:22:44
Программа кодирования : mkvmerge v6.1.0 ('Old Devil') built on Mar 4 2013 09:10:42
Библиотека кодирования : libebml v1.3.0 + libmatroska v1.4.0
Видео
Идентификатор : 1
Формат : AVC
Формат/Информация : Advanced Video Codec
Профиль формата : High@L4.1
Параметр CABAC формата : Да
Параметр ReFrames формата : 8 кадров
Идентификатор кодека : V_MPEG4/ISO/AVC
Продолжительность : 1 ч. 14 м.
Битрейт : 1267 Кбит/сек
Ширина : 680 пикселей
Высота : 566 пикселей
Соотношение сторон : 4:3
Режим частоты кадров : Постоянный
Частота кадров : 25,000 кадров/сек
Цветовое пространство : YUV
Субдискретизация насыщенности : 4:2:0
Битовая глубина : 8 бит
Тип развёртки : Прогрессивная
Бит/(Пиксели*Кадры) : 0.132
Размер потока : 661 Мбайт (89%)
Библиотека кодирования : x264 core 138 r2356 a1d3d17
Настройки программы : cabac=1 / ref=8 / deblock=1:-2:-1 / analyse=0x3:0x113 / me=umh / subme=10 / psy=1 / psy_rd=1.00:0.05 / mixed_ref=1 / me_range=32 / chroma_me=1 / trellis=2 / 8x8dct=1 / cqm=0 / deadzone=21,11 / fast_pskip=0 / chroma_qp_offset=-3 / threads=6 / lookahead_threads=1 / sliced_threads=0 / nr=0 / decimate=0 / interlaced=0 / bluray_compat=0 / constrained_intra=0 / bframes=8 / b_pyramid=2 / b_adapt=2 / b_bias=0 / direct=3 / weightb=1 / open_gop=0 / weightp=2 / keyint=250 / keyint_min=25 / scenecut=40 / intra_refresh=0 / rc=2pass / mbtree=0 / bitrate=1267 / ratetol=1.0 / qcomp=0.60 / qpmin=0 / qpmax=69 / qpstep=4 / cplxblur=20.0 / qblur=0.5 / ip_ratio=1.40 / pb_ratio=1.30 / aq=1:1.00
Default : Да
Forced : Нет
Аудио
Идентификатор : 2
Формат : AC-3
Формат/Информация : Audio Coding 3
Расширение режима : CM (complete main)
Параметр Endianness формата : Big
Идентификатор кодека : A_AC3
Продолжительность : 1 ч. 14 м.
Вид битрейта : Постоянный
Битрейт : 128 Кбит/сек
Каналы : 2 канала
Расположение каналов : Front: L R
Частота : 48,0 КГц
Битовая глубина : 16 бит
Метод сжатия : С потерями
Размер потока : 68,2 Мбайт (9%)
Default : Да
Forced : Нет





   Похожие торренты   Торрент   Размер 
В этой теме нет новых непрочитанных сообщений. Она защищает Родину (1943) DVDRip от New-Team

8 | 4

742.46 МБ

В этой теме нет новых непрочитанных сообщений. Она защищает Родину (1943) DVDRip

40 | 5

742.74 МБ

В этой теме нет новых непрочитанных сообщений. Актриса (1943) DVDRip от New-Team

30 | 9

763.68 МБ

В этой теме нет новых непрочитанных сообщений. Актриса (1943) DVDRip-AVC от New-Team

6 | 20

1.09 ГБ

В этой теме нет новых непрочитанных сообщений. Кутузов (1943) DVDRip от New-Team

41 | 10

1.45 ГБ

В этой теме нет новых непрочитанных сообщений. Жди меня (1943) DVDRip-AVC от New-Team

21 | 6

1.09 ГБ

В этой теме нет новых непрочитанных сообщений. Давид Бек (1943) DVDRip от New-Team

7 | 5

1.42 ГБ




Вы не можете начинать темы
Вы не можете отвечать на сообщения
Вы не можете редактировать свои сообщения
Вы не можете удалять свои сообщения
Вы не можете добавлять вложения

Перейти:  
Для Мосгорсуда, Роскомнадзора и рекламодателей: mosgorsud-torrent[собачка]yandex.ru
 Вход
ppkBB3cker v.2 © 2008-2014 @ PPK
[ Time : 0.031s | 15 Queries | GZIP : Off ]

Торрент трекер RUTOR.IN, Не можете зайти на rutor.org? Какой новый адрес рутор? Какое зеркало рутор? Не работает rutor.org и зеркала? Тогда наш торрент специально для вас. Rutor.in неофициальное зеркало rutor. В случае если у Вас заблокирован rutor или вдруг Вы не можете на него зайти, то Вы без труда сможете скачать бесплатно и без рекламы последние новинки кино, игр, сериалов и прочего у нас, на Rutor.in. Не нужно использовать прокси, чтобы зайти на рутор, достаточно воспользоваться нашим ресурсом. Все новые фильмы, игры, сериалы, книги и музыка за 2013 и 2014 годы через торрент бесплатно. Скачивайте фильмы в хорошем качестве, игры для пк, xbox, playstation без регистрации. У нас вы найдете новые Зарубежные сериалы и Русские сериалы 2013, 2014, 2015 годов. Оставайтесь с нами, качайте любимые фильмы, игры, сериалы, книги и музыку.