img image001 image001 image001 image001 image001 image001 image001 image001 image001 image001 image001 image001 image001 image001 image001

Planets Sun Sun Sun
Статистика раздачи
Автор: Nickolas3434 | Размер: 2.17 ГБ | Добавлен: 30 мар 2015
Раздают: 18    Качают: 9
Скачать торрент
Скачать торрент
Описание торрента

СообщениеДобавлено: 30 мар 2015 

Информация о фильме
Название: Дополнительный прибывает на второй путь
Год выхода: 1986
Жанр: Детектив, Криминальный
Режиссер: Валерий Ахадов, Сайдо Курбанов
В ролях: Сергей Никоненко, Сайдо Курбанов, Юрий Платонов, Хабибулло Абдуразаков, Светлана Петросьянц, Шухрат Иргашев, Максуд Иматшоев, Ато Мухамеджанов, Александр Коршунов, Земфира Цахилова, Яна Друзь, Лидия Онищенко, Владимир Земляникин, Тути Гафарова, Абдусалом Рахимов, Наталья Крачковская, Олег Шкловский, Владимир Мышкин, Алексей Ванин
О фильме: В тамбуре одного из вагонов поезда Москва-Душанбе обнаружен труп пассажира. Двум случайным попутчикам - сотрудникам милиции Денисову и Курбанову - предстоит вести свое расследование в очень непростых условиях...
Доп.информация: Исходник DVB

Выпущено: СССР / Гостелерадио, Таджикфильм
Продолжительность: 02:12:12
Перевод: Не требуется (оригинальный)
Файл
Формат: avi
Качество: SATRip (DVB)
Видео: XviD, 704x528, 25fps, 2146kbps
Аудио: MPEG Layer 3, 2ch, 48000Hz, 192kbps

General
Complete name : Dopolnitelnyi.Pribyvaet.Na.2.Put.1986.O.SATRip.2100.MediaClub.CurHaJI.avi
Format : AVI
Format/Info : Audio Video Interleave
Format profile : OpenDML
File size : 2.17 GiB
Duration : 2h 12mn
Overall bit rate : 2 351 Kbps
Movie name : Dopolnitelnyi.Pribyvaet.Na.2.Put.1986.O.SATRip.2100.MediaClub.CurHaJI
Writing application : Lavf53.13.0
Writing library : VirtualDub build 35491/release
Video
ID : 0
Format : MPEG-4 Visual
Format profile : Advanced Simple@L5
Format settings, BVOP : 1
Format settings, QPel : No
Format settings, GMC : No warppoints
Format settings, Matrix : Custom
Codec ID : XVID
Codec ID/Hint : XviD
Duration : 2h 12mn
Bit rate : 2 146 Kbps
Width : 704 pixels
Height : 528 pixels
Display aspect ratio : 4:3
Frame rate : 25.000 fps
Color space : YUV
Chroma subsampling : 4:2:0
Bit depth : 8 bits
Scan type : Progressive
Compression mode : Lossy
Bits/(Pixel*Frame) : 0.231
Stream size : 1.98 GiB (91%)
Writing library : XviD 1.2.1 (UTC 2008-12-04)
Audio
ID : 1
Format : MPEG Audio
Format version : Version 1
Format profile : Layer 3
Codec ID : 55
Codec ID/Hint : MP3
Duration : 2h 12mn
Bit rate mode : Constant
Bit rate : 192 Kbps
Channel(s) : 2 channels
Sampling rate : 48.0 KHz
Compression mode : Lossy
Stream size : 182 MiB (8%)
Alignment : Split accross interleaves
Interleave, duration : 40 ms (1.00 video frame)
Interleave, preload duration : 500 ms
Writing library : L3.99r
Encoding settings : -m s -V 4 -q 2 -lowpass 18.6 -b 192



Релиз от:



   Похожие торренты   Торрент   Размер 
В этой теме нет новых непрочитанных сообщений. Дополнительный прибывает на второй путь (1986) SATRip от MediaClub

58 | 7

1.45 ГБ

В этой теме нет новых непрочитанных сообщений. Путь к себе [01-03 из 03] (1986) DVDRip от ExKinoRay

3 | 8

2.77 ГБ

В этой теме нет новых непрочитанных сообщений. Хлопок прибывает в Гарлем / Cotton Comes to Harlem (1970) BDRip | P

38 | 3

1.42 ГБ

В этой теме нет новых непрочитанных сообщений. Звёздный путь 4: Дорога домой / Star Trek 4: The Voyage Home (1986) HDRip

6 | 5

2.01 ГБ

В этой теме нет новых непрочитанных сообщений. Дополнительный день / Il giorno in più (2011) HDRip | P2

109 | 40

1.46 ГБ

В этой теме нет новых непрочитанных сообщений. Звездный путь 4: Дорога домой / Star Trek IV: The Voyage Home (1986) BDRip от HQCLUB

95 | 7

2.18 ГБ

В этой теме нет новых непрочитанных сообщений. Звездный путь 4: Дорога домой / Star Trek IV: The Voyage Home (1986) BDRip от HQ-VIDEO

8 | 4

2.18 ГБ




Вы не можете начинать темы
Вы не можете отвечать на сообщения
Вы не можете редактировать свои сообщения
Вы не можете удалять свои сообщения
Вы не можете добавлять вложения

Перейти:  
Для Мосгорсуда, Роскомнадзора и рекламодателей: mosgorsud-torrent[собачка]yandex.ru
 Вход
ppkBB3cker v.2 © 2008-2014 @ PPK
[ Time : 0.034s | 16 Queries | GZIP : Off ]

Торрент трекер RUTOR.IN, Не можете зайти на rutor.org? Какой новый адрес рутор? Какое зеркало рутор? Не работает rutor.org и зеркала? Тогда наш торрент специально для вас. Rutor.in неофициальное зеркало rutor. В случае если у Вас заблокирован rutor или вдруг Вы не можете на него зайти, то Вы без труда сможете скачать бесплатно и без рекламы последние новинки кино, игр, сериалов и прочего у нас, на Rutor.in. Не нужно использовать прокси, чтобы зайти на рутор, достаточно воспользоваться нашим ресурсом. Все новые фильмы, игры, сериалы, книги и музыка за 2013 и 2014 годы через торрент бесплатно. Скачивайте фильмы в хорошем качестве, игры для пк, xbox, playstation без регистрации. У нас вы найдете новые Зарубежные сериалы и Русские сериалы 2013, 2014, 2015 годов. Оставайтесь с нами, качайте любимые фильмы, игры, сериалы, книги и музыку.