img image001 image001 image001 image001 image001 image001 image001 image001 image001 image001 image001 image001 image001 image001 image001

Planets Sun Sun Sun
Статистика раздачи
Автор: Nickolas3434 | Размер: 744.27 МБ | Добавлен: 30 мар 2015
Раздают: 38    Качают: 12
Скачать торрент
Скачать торрент
Описание торрента

СообщениеДобавлено: 30 мар 2015 

Страна: СССР
Производство: Бакинская киностудия художественных фильмов, Ленфильм
Жанр: драма, военный
Год выпуска: 1943
Продолжительность: 01:06:29
Перевод: Не требуется
Cубтитры: нет
Оригинальная аудиодорожка: русский
Режиссер: Александр Иванов
В ролях:
Олег Жаков, Борис Чинкин, Исмаил Дагестанлы, Виктор Шарлахов, Александр Аллегров, Борис Байков, Д. Александров, Кязим Зия, Мовсум Санани...
Описание:
Великая Отечественная война. Советская подводная лодка Т-9, пройдя через минные заграждения Северного моря, проникает во вражеский порт. Моряки топят транспортные суда противника, но вскоре узнают, что опоздали — вражеские войска и вооружения уже сгружены и направлены на фронт. Капитан Костров оказывается в ситуации, когда боевое задание почти невыполнимо, но он должен его выполнить — для него это вопрос чести или бесчестья.





Источник: DVD5 R5
Качество видео: DVDRip
Формат видео: AVI
Видео: 688x512 (4:3), 25 fps, XviD ~ 1427 kbps avg, 0.162 bit/pixel
Аудио: 48 kHz, Dolby Digital AC3 1.0, 128 kbps
Раздача от:
Общее
Полное имя : Podvodnaya.lodka.T-9.1943.DVDRip_[New-team]_by_AVP_Studio.avi
Формат : AVI
Формат/Информация : Audio Video Interleave
Размер файла : 744 Мбайт
Продолжительность : 1 ч. 6 м.
Общий поток : 1565 Кбит/сек
Программа кодирования : VirtualDubModRus 1.5.10.2 (build 2542/release)
Библиотека кодирования : VirtualDubMod build 2542/release
Видео
Идентификатор : 0
Формат : MPEG-4 Visual
Профиль формата : Advanced Simple@L5
Параметр BVOP формата : 1
Параметр QPel формата : Нет
Параметр GMC формата : Без точки перехода
Параметр матрицы формата : Выборочная
Идентификатор кодека : XVID
Идентификатор кодека/Подсказка : XviD
Продолжительность : 1 ч. 6 м.
Битрейт : 1427 Кбит/сек
Ширина : 688 пикселей
Высота : 512 пикселей
Соотношение сторон : 4:3
Частота кадров : 25,000 кадров/сек
Цветовое пространство : YUV
Субдискретизация насыщенности : 4:2:0
Битовая глубина : 8 бит
Тип развёртки : Прогрессивная
Метод сжатия : С потерями
Бит/(Пиксели*Кадры) : 0.162
Размер потока : 679 Мбайт (91%)
Библиотека кодирования : XviD 73
Аудио
Идентификатор : 1
Формат : AC-3
Формат/Информация : Audio Coding 3
Расширение режима : CM (complete main)
Параметр Endianness формата : Big
Идентификатор кодека : 2000
Продолжительность : 1 ч. 6 м.
Вид битрейта : Постоянный
Битрейт : 128 Кбит/сек
Каналы : 1 канал
Расположение каналов : Front: C
Частота : 48,0 КГц
Битовая глубина : 16 бит
Метод сжатия : С потерями
Размер потока : 60,9 Мбайт (8%)
Выравнивание : Разделение по промежуткам
Продолжительность промежутка : 40 мс. (1,00 видеокадр)
Время предзагрузки промежутка : 500 мс





   Похожие торренты   Торрент   Размер 
В этой теме нет новых непрочитанных сообщений. Подводная лодка Т-9 (1943) DVDRip-AVC от New-Team

17 | 37

744.15 МБ

В этой теме нет новых непрочитанных сообщений. Подводная лодка Т-9 (1943) DVDRip от New-Team

33 | 24

1.1 ГБ

В этой теме нет новых непрочитанных сообщений. The Beatles: Желтая подводная лодка / Yellow Submarine (1968) BDRip 1080 от Element team

0 | 2

4.31 ГБ

В этой теме нет новых непрочитанных сообщений. Подводная лодка / Das Boot (1981) DVDRip

77 | 7

1.37 ГБ

В этой теме нет новых непрочитанных сообщений. Атомная подводная лодка / The Atomic Submarine (1960) DVDRip от GalVid

13 | 4

734.97 МБ

В этой теме нет новых непрочитанных сообщений. Последняя подводная лодка / Das letzte U-Boot (1993) DVDRip от FilmRus | A

292 | 31

1.37 ГБ

В этой теме нет новых непрочитанных сообщений. Подводная лодка / Das Boot / The Boat (1981) DVDRip | Расширенная версия / Unrated

16 | 6

4.37 ГБ




Вы не можете начинать темы
Вы не можете отвечать на сообщения
Вы не можете редактировать свои сообщения
Вы не можете удалять свои сообщения
Вы не можете добавлять вложения

Перейти:  
Для Мосгорсуда, Роскомнадзора и рекламодателей: mosgorsud-torrent[собачка]yandex.ru
 Вход
ppkBB3cker v.2 © 2008-2014 @ PPK
[ Time : 1.159s | 16 Queries | GZIP : Off ]

Торрент трекер RUTOR.IN, Не можете зайти на rutor.org? Какой новый адрес рутор? Какое зеркало рутор? Не работает rutor.org и зеркала? Тогда наш торрент специально для вас. Rutor.in неофициальное зеркало rutor. В случае если у Вас заблокирован rutor или вдруг Вы не можете на него зайти, то Вы без труда сможете скачать бесплатно и без рекламы последние новинки кино, игр, сериалов и прочего у нас, на Rutor.in. Не нужно использовать прокси, чтобы зайти на рутор, достаточно воспользоваться нашим ресурсом. Все новые фильмы, игры, сериалы, книги и музыка за 2013 и 2014 годы через торрент бесплатно. Скачивайте фильмы в хорошем качестве, игры для пк, xbox, playstation без регистрации. У нас вы найдете новые Зарубежные сериалы и Русские сериалы 2013, 2014, 2015 годов. Оставайтесь с нами, качайте любимые фильмы, игры, сериалы, книги и музыку.