img image001 image001 image001 image001 image001 image001 image001 image001 image001 image001 image001 image001 image001 image001 image001

Planets Sun Sun Sun
Статистика раздачи
Автор: Nickolas3434 | Размер: 745.94 МБ | Добавлен: 29 мар 2015
Раздают: 43    Качают: 5
Скачать торрент
Скачать торрент
Описание торрента

СообщениеДобавлено: 29 мар 2015 

Страна: СССР
Производство: Мосфильм
Жанр: драма, мелодрама, военный
Год выпуска: 1943
Продолжительность: 00:57:42
Перевод: Не требуется
Cубтитры: нет
Оригинальная аудиодорожка: русский
Режиссер: Владимир Браун, Николай Садкович
В ролях:
Иван Переверзев, Фаина Раневская, Лидия Смирнова, Александр Хвыля, Виктор Щеглов, Иван Бобров, Семен Гольдштаб, Григорий Михайлов, Виктор Проклов, Андрей Сова...
Описание:
Новелла «Три гвардейца» — экранизация повести В. Кожевникова «Родные берега». Трое солдат пробирабтся в оккупированный фашистами город. В момент атаки советских войск они должны вызвать панику в тылу врага…
Новелла «Пропавший безвести» посвящена морякам с торпедного катера.





Источник: DVD5
Качество видео: DVDRip
Формат видео: AVI
Видео: 656x496 (4:3), 25 fps, XviD ~ 1605 kbps avg, 0.197 bit/pixel
Аудио: 48 kHz, Dolby Digital AC3 2.0, 192 kbps
Раздача от:
Общее
Полное имя : Rodnye.berega.1943.DVDRip_[New-team]_by_AVP_Studio.avi
Формат : AVI
Формат/Информация : Audio Video Interleave
Размер файла : 746 Мбайт
Продолжительность : 57 м.
Общий поток : 1807 Кбит/сек
Программа кодирования : VirtualDubModRus 1.5.10.2 (build 2542/release)
Библиотека кодирования : VirtualDubMod build 2542/release
Видео
Идентификатор : 0
Формат : MPEG-4 Visual
Профиль формата : Advanced Simple@L5
Параметр BVOP формата : 1
Параметр QPel формата : Нет
Параметр GMC формата : Без точки перехода
Параметр матрицы формата : Выборочная
Идентификатор кодека : XVID
Идентификатор кодека/Подсказка : XviD
Продолжительность : 57 м.
Битрейт : 1605 Кбит/сек
Ширина : 656 пикселей
Высота : 496 пикселей
Соотношение сторон : 4:3
Частота кадров : 25,000 кадров/сек
Цветовое пространство : YUV
Субдискретизация насыщенности : 4:2:0
Битовая глубина : 8 бит
Тип развёртки : Прогрессивная
Метод сжатия : С потерями
Бит/(Пиксели*Кадры) : 0.197
Размер потока : 663 Мбайт (89%)
Библиотека кодирования : XviD 73
Аудио
Идентификатор : 1
Формат : AC-3
Формат/Информация : Audio Coding 3
Расширение режима : CM (complete main)
Параметр Endianness формата : Big
Идентификатор кодека : 2000
Продолжительность : 57 м.
Вид битрейта : Постоянный
Битрейт : 192 Кбит/сек
Каналы : 2 канала
Расположение каналов : Front: L R
Частота : 48,0 КГц
Битовая глубина : 16 бит
Метод сжатия : С потерями
Размер потока : 79,3 Мбайт (11%)
Выравнивание : Разделение по промежуткам
Продолжительность промежутка : 40 мс. (1,00 видеокадр)
Время предзагрузки промежутка : 500 мс





   Похожие торренты   Торрент   Размер 
В этой теме нет новых непрочитанных сообщений. Родные берега (1943) DVDRip-AVC от New-Team

50 | 9

745.25 МБ

В этой теме нет новых непрочитанных сообщений. Андрей Соболев - Родные берега (2006) MP3 от BestSound ExKinoRay

41 | 6

163.18 МБ

В этой теме нет новых непрочитанных сообщений. Родные поля (1944) SATRip-AVC от New-Team

17 | 3

1.09 ГБ

В этой теме нет новых непрочитанных сообщений. Родные поля (1944) SATRip от New-Team

17 | 44

745.18 МБ

В этой теме нет новых непрочитанных сообщений. Родные поля (1944) SATRip от New-Team

7 | 11

1.09 ГБ

В этой теме нет новых непрочитанных сообщений. Актриса (1943) DVDRip от New-Team

29 | 8

763.68 МБ

В этой теме нет новых непрочитанных сообщений. Актриса (1943) DVDRip-AVC от New-Team

6 | 19

1.09 ГБ




Вы не можете начинать темы
Вы не можете отвечать на сообщения
Вы не можете редактировать свои сообщения
Вы не можете удалять свои сообщения
Вы не можете добавлять вложения

Перейти:  
Для Мосгорсуда, Роскомнадзора и рекламодателей: mosgorsud-torrent[собачка]yandex.ru
 Вход
ppkBB3cker v.2 © 2008-2014 @ PPK
[ Time : 0.028s | 16 Queries | GZIP : Off ]

cron