img image001 image001 image001 image001 image001 image001 image001 image001 image001 image001 image001 image001 image001 image001 image001

Planets Sun Sun Sun
Статистика раздачи
Автор: Nickolas3434 | Размер: 744.58 МБ | Добавлен: 30 мар 2015
Раздают: 12    Качают: 8
Скачать торрент
Скачать торрент
Описание торрента

СообщениеДобавлено: 30 мар 2015 

Страна: СССР
Производство: Мосфильм
Жанр: драма, мелодрама
Год выпуска: 1975
Продолжительность: 01:28:58
Перевод: Не требуется
Cубтитры: нет
Оригинальная аудиодорожка: русский
Режиссер: Сергей Соловьев
В ролях:
Борис Токарев, Татьяна Друбич, Ирина Малышева, Юрий Агилин, Сергей Шакуров, Нина Меньшикова, Арина Алейникова, Андрей Звягин, Юрий Сорокин, Татьяна Юринова, Сергей Хлебников, В.Благовидова, Виктор Маркин, Т.Кавешникова, С.Лопухов, И.Потолова...
Описание:
Это лето в пионерском лагере запомнится Мите Лопухину надолго. Оно стало последним летом детства. Оно одарило Митю дружбой с прекрасным человеком, который открыл подростку смысл и величие искусства. А главное — он узнал радость и горечь первой любви…
"Нам хотелось дать неясное ощущение счастья, гармонии, ожидания чего-то и - вечности. Так, эпиграфом появился букет на окне вначале. Ведь эти ощущения нам знакомы с детства. ...фильм о духовном мужании, о нравственном воспитании. Но не ищите здесь абсолютных негодяев или идеально положительных личностей. ...Ребята с начала жизни накапливают знание о мире и эмоциональный опыт. В отрочестве складывается психологическая и нравственная структура, осознание себя и других, себя среди других. Первая оценка и первый самоанализ: 'что я есть?'." - Сергей Соловьев.





Источник: DVD5 R5
Качество видео: DVDRip
Формат видео: AVI
Видео: 720x304 (2,35:1), 25 fps, XviD ~ 1032 kbps avg, 0.189 bit/pixel
Аудио: 48 kHz, MP3 2.0, 128 kbps
Раздача от:
Общее
Полное имя : Sto.dney.posle.detstva.1975.DVDRip-745_[New-team]_by_AVP_Studio.avi
Формат : AVI
Формат/Информация : Audio Video Interleave
Размер файла : 745 Мбайт
Продолжительность : 1 ч. 28 м.
Общий поток : 1170 Кбит/сек
Программа кодирования : VirtualDubModRus 1.5.10.2 (build 2542/release)
Библиотека кодирования : VirtualDubMod build 2542/release
Видео
Идентификатор : 0
Формат : MPEG-4 Visual
Профиль формата : Advanced Simple@L5
Параметр BVOP формата : 1
Параметр QPel формата : Нет
Параметр GMC формата : Без точки перехода
Параметр матрицы формата : Выборочная
Идентификатор кодека : XVID
Идентификатор кодека/Подсказка : XviD
Продолжительность : 1 ч. 28 м.
Битрейт : 1032 Кбит/сек
Ширина : 720 пикселей
Высота : 304 пикселя
Соотношение сторон : 2,35:1
Частота кадров : 25,000 кадров/сек
Цветовое пространство : YUV
Субдискретизация насыщенности : 4:2:0
Битовая глубина : 8 бит
Тип развёртки : Прогрессивная
Метод сжатия : С потерями
Бит/(Пиксели*Кадры) : 0.189
Размер потока : 657 Мбайт (88%)
Библиотека кодирования : XviD 73
Аудио
Идентификатор : 1
Формат : MPEG Audio
Версия формата : Version 1
Профиль формата : Layer 3
Идентификатор кодека : 55
Идентификатор кодека/Подсказка : MP3
Продолжительность : 1 ч. 28 м.
Вид битрейта : Постоянный
Битрейт : 128 Кбит/сек
Каналы : 2 канала
Частота : 48,0 КГц
Метод сжатия : С потерями
Размер потока : 81,4 Мбайт (11%)
Выравнивание : Соединение по промежуткам
Продолжительность промежутка : 40 мс. (1,00 видеокадр)
Время предзагрузки промежутка : 504 мс.
Библиотека кодирования : LAME3.99r
Настройки программы : -m s -V 4 -q 2 -lowpass 17 -b 128





   Похожие торренты   Торрент   Размер 
В этой теме нет новых непрочитанных сообщений. Сто дней после детства (1975) DVDRip-AVC от New-Team

74 | 14

1.46 ГБ

В этой теме нет новых непрочитанных сообщений. Сто дней после детства (1975) DVDRip от New-Team

49 | 4

1.46 ГБ

В этой теме нет новых непрочитанных сообщений. Сто дней после детства (1975) DVDRip

174 | 11

1.36 ГБ

В этой теме нет новых непрочитанных сообщений. Сто дней после детства (1975) DVDRip

3 | 2

1.09 ГБ

В этой теме нет новых непрочитанных сообщений. Сто дней после детства (1975) DVDRip от AndrewWhite

3 | 1

700.35 МБ

В этой теме нет новых непрочитанных сообщений. Сто дней после детства (1975) DVD5 от Pskovline

15 | 2

4.05 ГБ

В этой теме нет новых непрочитанных сообщений. Порт (1975) DVDRip-AVC от New-Team

24 | 7

744.62 МБ




Вы не можете начинать темы
Вы не можете отвечать на сообщения
Вы не можете редактировать свои сообщения
Вы не можете удалять свои сообщения
Вы не можете добавлять вложения

Перейти:  
Для Мосгорсуда, Роскомнадзора и рекламодателей: mosgorsud-torrent[собачка]yandex.ru
 Вход
ppkBB3cker v.2 © 2008-2014 @ PPK
[ Time : 0.025s | 15 Queries | GZIP : Off ]

Торрент трекер RUTOR.IN, Не можете зайти на rutor.org? Какой новый адрес рутор? Какое зеркало рутор? Не работает rutor.org и зеркала? Тогда наш торрент специально для вас. Rutor.in неофициальное зеркало rutor. В случае если у Вас заблокирован rutor или вдруг Вы не можете на него зайти, то Вы без труда сможете скачать бесплатно и без рекламы последние новинки кино, игр, сериалов и прочего у нас, на Rutor.in. Не нужно использовать прокси, чтобы зайти на рутор, достаточно воспользоваться нашим ресурсом. Все новые фильмы, игры, сериалы, книги и музыка за 2013 и 2014 годы через торрент бесплатно. Скачивайте фильмы в хорошем качестве, игры для пк, xbox, playstation без регистрации. У нас вы найдете новые Зарубежные сериалы и Русские сериалы 2013, 2014, 2015 годов. Оставайтесь с нами, качайте любимые фильмы, игры, сериалы, книги и музыку.