img image001 image001 image001 image001 image001 image001 image001 image001 image001 image001 image001 image001 image001 image001 image001

Planets Sun Sun Sun
Статистика раздачи
Автор: Nickolas3434 | Размер: 1.26 ГБ | Добавлен: 31 мар 2015
Раздают: 43    Качают: 3
Скачать торрент
Скачать торрент
Описание торрента

СообщениеДобавлено: 31 мар 2015 

Информация о фильме
Оригинальное название: Танго мотылька
Год выхода: 2015
Жанр: Мелодрама
Режиссер: Игорь Мужжухин
В ролях: Дарья Щербакова, Сергей Мухин, Анастасия Асеева, Дмитрий Куличков, Павел Кузьмин, Николай Лунин (II), Анна Швол, Руслан Джайбеков, Алла Подчуфарова, Светлана Йозефий, Сергей Карякин, Александр Алёшкин
О фильме:
Казалось бы, ничто и никогда не сможет разрушить идиллии, которая царит в семье Ани. Вот-вот они с мужем станут родителями: через несколько месяцев эта красивая женщина, которая не представляет своей жизни без любимого мужчины, станет мамой. Но у жестокой судьбы совсем другие планы на будущее...

Страна: Россия
Студия: Кинокомпания "Русское", "Студия Олимп"
Продолжительность: 01:31:19
Перевод: Не требуется
Файл
Качество: HDTVRip (AVC)
Видео: MPEG-4 AVC, ~ 1829 Кбит/с, 1024x576
Аудио: AC3, 2 ch, 192 Кбит/с
General
Unique ID : 211716782727616465709323789095353609132 (0x9F472B4DF7C20EB7A733BCE933466BAC)
Complete name : C:Tango.motylka.2015.HDTVRip.AVC.ExKinoRay.mkv
Format : Matroska
Format version : Version 4 / Version 2
File size : 1.26 GiB
Duration : 1h 29mn
Overall bit rate : 2 022 Kbps
Movie name : Tango motylka 2015 from ExKinoRay
Encoded date : UTC 2015-03-29 21:21:16
Writing application : mkvmerge v6.6.0 ('The Edge Of The In Between') built on Dec 1 2013 17:55:00
Writing library : libebml v1.3.0 + libmatroska v1.4.1
Video
ID : 1
Format : AVC
Format/Info : Advanced Video Codec
Format profile : High@L4.1
Format settings, CABAC : Yes
Format settings, ReFrames : 9 frames
Codec ID : V_MPEG4/ISO/AVC
Duration : 1h 29mn
Bit rate : 1 829 Kbps
Width : 1 024 pixels
Height : 576 pixels
Display aspect ratio : 16:9
Frame rate mode : Constant
Frame rate : 25.000 fps
Color space : YUV
Chroma subsampling : 4:2:0
Bit depth : 8 bits
Scan type : Progressive
Bits/(Pixel*Frame) : 0.124
Stream size : 1.12 GiB (89%)
Title : Enigma-Vladisalv71
Writing library : x264 core 133 r2334 a3ac64b
Encoding settings : cabac=1 / ref=9 / deblock=1:-2:-2 / analyse=0x3:0x113 / me=umh / subme=10 / psy=1 / psy_rd=1.00:0.10 / mixed_ref=1 / me_range=32 / chroma_me=1 / trellis=2 / 8x8dct=1 / cqm=0 / deadzone=21,11 / fast_pskip=0 / chroma_qp_offset=-3 / threads=12 / lookahead_threads=2 / sliced_threads=0 / nr=0 / decimate=0 / interlaced=0 / bluray_compat=0 / constrained_intra=0 / bframes=9 / b_pyramid=2 / b_adapt=2 / b_bias=0 / direct=3 / weightb=1 / open_gop=0 / weightp=2 / keyint=250 / keyint_min=25 / scenecut=40 / intra_refresh=0 / rc=2pass / mbtree=0 / bitrate=1829 / ratetol=1.0 / qcomp=0.60 / qpmin=0 / qpmax=51 / qpstep=4 / cplxblur=20.0 / qblur=0.5 / ip_ratio=1.40 / pb_ratio=1.30 / aq=1:1.00
Default : Yes
Forced : No
Audio
ID : 2
Format : AC-3
Format/Info : Audio Coding 3
Mode extension : CM (complete main)
Format settings, Endianness : Big
Codec ID : A_AC3
Duration : 1h 29mn
Bit rate mode : Constant
Bit rate : 192 Kbps
Channel(s) : 2 channels
Channel positions : Front: L R
Sampling rate : 48.0 KHz
Bit depth : 16 bits
Compression mode : Lossy
Stream size : 123 MiB (9%)
Language : Russian
Default : Yes
Forced : No





Релиз от:
Автор релиза:



   Похожие торренты   Торрент   Размер 
В этой теме нет новых непрочитанных сообщений. Танго мотылька (2015) HDTVRip от ExKinoRay

213 | 20

703.78 МБ

В этой теме нет новых непрочитанных сообщений. Танго мотылька (2015) HDTVRip AVC

93 | 3

1.29 ГБ

В этой теме нет новых непрочитанных сообщений. Танго мотылька (2015) HDTVRip от Files-x

633 | 40

1.37 ГБ

В этой теме нет новых непрочитанных сообщений. Танго мотылька (2015) HDTVRip 720p от MediaClub

748 | 470

2.43 ГБ

В этой теме нет новых непрочитанных сообщений. Танго мотылька (2015) SATRip

383 | 11

1.25 ГБ

В этой теме нет новых непрочитанных сообщений. Танго мотылька (2015) WEB-DLRip от Interhit

5212 | 409

1.37 ГБ

В этой теме нет новых непрочитанных сообщений. Танго мотылька (2015) HDTV 1080i от MediaClub

744 | 57

4.15 ГБ




Вы не можете начинать темы
Вы не можете отвечать на сообщения
Вы не можете редактировать свои сообщения
Вы не можете удалять свои сообщения
Вы не можете добавлять вложения

Перейти:  
Для Мосгорсуда, Роскомнадзора и рекламодателей: mosgorsud-torrent[собачка]yandex.ru
 Вход
ppkBB3cker v.2 © 2008-2014 @ PPK
[ Time : 0.569s | 15 Queries | GZIP : Off ]

Торрент трекер RUTOR.IN, Не можете зайти на rutor.org? Какой новый адрес рутор? Какое зеркало рутор? Не работает rutor.org и зеркала? Тогда наш торрент специально для вас. Rutor.in неофициальное зеркало rutor. В случае если у Вас заблокирован rutor или вдруг Вы не можете на него зайти, то Вы без труда сможете скачать бесплатно и без рекламы последние новинки кино, игр, сериалов и прочего у нас, на Rutor.in. Не нужно использовать прокси, чтобы зайти на рутор, достаточно воспользоваться нашим ресурсом. Все новые фильмы, игры, сериалы, книги и музыка за 2013 и 2014 годы через торрент бесплатно. Скачивайте фильмы в хорошем качестве, игры для пк, xbox, playstation без регистрации. У нас вы найдете новые Зарубежные сериалы и Русские сериалы 2013, 2014, 2015 годов. Оставайтесь с нами, качайте любимые фильмы, игры, сериалы, книги и музыку.