img image001 image001 image001 image001 image001 image001 image001 image001 image001 image001 image001 image001 image001 image001 image001

Planets Sun Sun Sun
Статистика раздачи
Автор: Nickolas3434 | Размер: 2.19 ГБ | Добавлен: 01 апр 2015
Раздают: 55    Качают: 7
Скачать торрент
Скачать торрент
Описание торрента

СообщениеДобавлено: 01 апр 2015 

Страна: Франция, Италия, Германия, Испания, Швейцария
Производство: Bac Films, Canal+ [fr], Centre National de la Cinématographie (CNC)
Жанр: документальный
Год выпуска: 2001
Продолжительность: 01:29:17
Перевод: Профессиональный (Одноголосый закадровый)
Оригинальная аудиодорожка: Французский
Cубтитры: русский, английский
Режиссер: Жак Перрен / Jacques Perrin, Жак Клюзо / Jacques Cluzaud, Мишель Деба / Michel Debats
В ролях:
Филипп Лабро, Жак Перрен...
Описание:
Этот сенсационный фильм — зрелище настолько завораживающее, что никакие спецэффекты не смогли бы передать невообразимую реальность происходящего. Работа операторов поистине уникальна — впервые в истории кино птиц снимали непосредственно во время полета. Чтобы запечатлеть сезонные миграции главных героев, была максимально усовершенствована съемочная техника, ведь снимать пришлось и в арктическом холоде, и в болоте, и в тумане, а главное — были разработаны сверхлегкие летательные аппараты, способные летать со скоростью и на высоте птиц. Над фильмом работало около 500 человек из разных стран мира, съемки заняли целых три года...






Исходник: BDRemux 1080p
Тип релиза: BDRip
Контейнер: AVI
Видео: 720x400 (16:9), 23,976 fps, XviD ~ 2141 kbps avg, 0.310 bit/pixel
Аудио: 48 kHz, Dolby Digital AC3, 5.1 ch, 448.00 kbps русский
Аудио: 48 kHz, Dolby Digital AC3, 5.1 ch, 448.00 kbps французский
Аудио: 48 kHz, Dolby Digital AC3, 5.1 ch, 448.00 kbps английский
Формат субтитров: SoftSub (srt)
Раздача от:
* С целью добиться того, чтобы птицы не пугались звуков, производимых людьми и кинокамерами, создатели фильма начали приучать к ним некоторых птиц ещё до того, как те вылупились из яиц.
* Эпизод, в котором гусь застревает в индустриальном отстойнике, был преднамеренно организован создателями фильма. После съёмок эпизода, птица была немедленно освобождена.
* А вот эпизод с раненой крачкой, окружённой крабами, не был заранее подготовлен. Птица была спасена съёмочной группой сразу после окончания съёмки - практически в последний момент.
* Премия национальной французской киноакадемии "Сезар" за лучший монтаж
* Номинации на премию "Сезар" за лучший дебют и лучшее музыкальное сопровождение фильма
* Номинация на "Оскар" 2003г. за лучший документальный фильм

Общее
Полное имя : Pticy.2001.BDRip_[New-team]_by_AVP_Studio.avi
Формат : AVI
Формат/Информация : Audio Video Interleave
Профиль формата : OpenDML
Размер файла : 2,19 Гбайт
Продолжительность : 1 ч. 29 м.
Общий поток : 3509 Кбит/сек
Программа кодирования : VirtualDubModRus 1.5.10.2 (build 2542/release)
Библиотека кодирования : VirtualDubMod build 2542/release
Видео
Идентификатор : 0
Формат : MPEG-4 Visual
Профиль формата : Advanced Simple@L5
Параметр BVOP формата : 1
Параметр QPel формата : Нет
Параметр GMC формата : Без точки перехода
Параметр матрицы формата : Выборочная
Идентификатор кодека : XVID
Идентификатор кодека/Подсказка : XviD
Продолжительность : 1 ч. 29 м.
Битрейт : 2141 Кбит/сек
Ширина : 720 пикселей
Высота : 400 пикселей
Соотношение сторон : 16:9
Частота кадров : 23,976 кадра/сек
Цветовое пространство : YUV
Субдискретизация насыщенности : 4:2:0
Битовая глубина : 8 бит
Тип развёртки : Прогрессивная
Метод сжатия : С потерями
Бит/(Пиксели*Кадры) : 0.310
Размер потока : 1,34 Гбайт (61%)
Библиотека кодирования : XviD 73
Аудио #1
Идентификатор : 1
Формат : AC-3
Формат/Информация : Audio Coding 3
Расширение режима : CM (complete main)
Параметр Endianness формата : Big
Идентификатор кодека : 2000
Продолжительность : 1 ч. 29 м.
Вид битрейта : Постоянный
Битрейт : 448 Кбит/сек
Каналы : 6 каналов
Расположение каналов : Front: L C R, Side: L R, LFE
Частота : 48,0 КГц
Битовая глубина : 16 бит
Метод сжатия : С потерями
Размер потока : 286 Мбайт (13%)
Выравнивание : Разделение по промежуткам
Продолжительность промежутка : 42 мс. (1,00 видеокадр)
Время предзагрузки промежутка : 500 мс.
Аудио #2
Идентификатор : 2
Формат : AC-3
Формат/Информация : Audio Coding 3
Расширение режима : CM (complete main)
Параметр Endianness формата : Big
Идентификатор кодека : 2000
Продолжительность : 1 ч. 29 м.
Вид битрейта : Постоянный
Битрейт : 448 Кбит/сек
Каналы : 6 каналов
Расположение каналов : Front: L C R, Side: L R, LFE
Частота : 48,0 КГц
Битовая глубина : 16 бит
Метод сжатия : С потерями
Размер потока : 286 Мбайт (13%)
Выравнивание : Разделение по промежуткам
Продолжительность промежутка : 42 мс. (1,00 видеокадр)
Время предзагрузки промежутка : 500 мс.
Аудио #3
Идентификатор : 3
Формат : AC-3
Формат/Информация : Audio Coding 3
Расширение режима : CM (complete main)
Параметр Endianness формата : Big
Идентификатор кодека : 2000
Продолжительность : 1 ч. 29 м.
Вид битрейта : Постоянный
Битрейт : 448 Кбит/сек
Каналы : 6 каналов
Расположение каналов : Front: L C R, Side: L R, LFE
Частота : 48,0 КГц
Битовая глубина : 16 бит
Метод сжатия : С потерями
Размер потока : 286 Мбайт (13%)
Выравнивание : Разделение по промежуткам
Продолжительность промежутка : 42 мс. (1,00 видеокадр)
Время предзагрузки промежутка : 500 мс





   Похожие торренты   Торрент   Размер 
В этой теме нет новых непрочитанных сообщений. Птицы / Le peuple migrateur (2001) BDRip от New-Team

17 | 2

744.4 МБ

В этой теме нет новых непрочитанных сообщений. Птицы / Le peuple migrateur (2001) BDRip-AVC от New-Team

17 | 7

2.18 ГБ

В этой теме нет новых непрочитанных сообщений. Птицы / Le peuple migrateur (2001) BDRip 720p от New-Team

71 | 21

3.63 ГБ

В этой теме нет новых непрочитанных сообщений. Птицы / Winged Migration / Le peuple migrateur (2001) BDRip 1080p

18 | 4

7.76 ГБ

В этой теме нет новых непрочитанных сообщений. Птицы / Winged Migration / Le peuple migrateur (2001) BDRip 1080p

0 | 0

6.91 ГБ

В этой теме нет новых непрочитанных сообщений. Птицы / Winged Migration / Le peuple migrateur (2001) BDRip от HELLYWOOD

7 | 4

1.45 ГБ

В этой теме нет новых непрочитанных сообщений. Птицы / Winged Migration / Le peuple migrateur (2001) BDRip от HQ-ViDEO

354 | 4

1.46 ГБ




Вы не можете начинать темы
Вы не можете отвечать на сообщения
Вы не можете редактировать свои сообщения
Вы не можете удалять свои сообщения
Вы не можете добавлять вложения

Перейти:  
Для Мосгорсуда, Роскомнадзора и рекламодателей: mosgorsud-torrent[собачка]yandex.ru
 Вход
ppkBB3cker v.2 © 2008-2014 @ PPK
[ Time : 0.082s | 15 Queries | GZIP : Off ]

Торрент трекер RUTOR.IN, Не можете зайти на rutor.org? Какой новый адрес рутор? Какое зеркало рутор? Не работает rutor.org и зеркала? Тогда наш торрент специально для вас. Rutor.in неофициальное зеркало rutor. В случае если у Вас заблокирован rutor или вдруг Вы не можете на него зайти, то Вы без труда сможете скачать бесплатно и без рекламы последние новинки кино, игр, сериалов и прочего у нас, на Rutor.in. Не нужно использовать прокси, чтобы зайти на рутор, достаточно воспользоваться нашим ресурсом. Все новые фильмы, игры, сериалы, книги и музыка за 2013 и 2014 годы через торрент бесплатно. Скачивайте фильмы в хорошем качестве, игры для пк, xbox, playstation без регистрации. У нас вы найдете новые Зарубежные сериалы и Русские сериалы 2013, 2014, 2015 годов. Оставайтесь с нами, качайте любимые фильмы, игры, сериалы, книги и музыку.