img image001 image001 image001 image001 image001 image001 image001 image001 image001 image001 image001 image001 image001 image001 image001

Planets Sun Sun Sun
Статистика раздачи
Автор: Nickolas3434 | Размер: 2.05 ГБ | Добавлен: 04 апр 2015
Раздают: 598    Качают: 9
Скачать торрент
Скачать торрент
Описание торрента

СообщениеДобавлено: 04 апр 2015 

Информация о фильме
Название: Духless 2
Год выхода: 2015
Жанр: драма
Режиссер: Роман Прыгунов
В ролях: Данила Козловский, Мария Андреева, Милош Бикович, Павел Ворожцов, Сергей Бурунов, Владимир Симонов, Доминик Пинон, Александра Бортич, Яна Набокова, Анна Александрова, Лев Прыгунов
О фильме:
Он отказался от всего, что так когда-то ценил — светской жизни, успешной карьеры, роскошного пентхауса. Теперь его стихия — океан. Каждый день он рассекает на серфе теплые волны, омывающие остров Бали. Но невозможно забыть ритм большого города. Случайное знакомство возвращает его в самое сердце современной столицы — высокие технологии, сумасшедшие сделки, смертельный риск и прежняя любовь, которая больше не с ним.

Страна: Россия
Студия: Арт Пикчерс Студия, Кинослово
Продолжительность: 01:47:03
Перевод: Не требуется [Лицензия]
Файл
Кодек: AVI (XviD)
Качество: DVDRip (Исх. DVD9)
Видео: 720x304 (2.37:1), 25 fps, XviD build 73 ~2279 kbps avg, 0.42 bit/pixel
Звук: 48 kHz, AC3 Dolby Digital, 3/2 (L,C,R,l,r) + LFE ch, ~448.00 kbps avg
Субтитры: нет
Семпл
Общее
Полное имя : S:ФильмыДухless 2. 2015. DVDRip. 2.05 (AleksSin).avi
Формат : AVI
Формат/Информация : Audio Video Interleave
Профиль формата : OpenDML
Размер файла : 2,05 Гбайт
Продолжительность : 1 ч. 47 м.
Общий поток : 2739 Кбит/сек
Программа кодирования : VirtualDubMod 1.5.10.3 | www.virtualdub-fr.org || (build 2550/release)
Библиотека кодирования : VirtualDubMod build 2550/release
Видео
Идентификатор : 0
Формат : MPEG-4 Visual
Профиль формата : Advanced Simple@L5
Параметр BVOP формата : 1
Параметр QPel формата : Нет
Параметр GMC формата : Без точки перехода
Параметр матрицы формата : Выборочная
Идентификатор кодека : XVID
Идентификатор кодека/Подсказка : XviD
Продолжительность : 1 ч. 47 м.
Битрейт : 2279 Кбит/сек
Ширина : 720 пикс.
Высота : 304 пикс.
Соотношение сторон : 2,35:1
Частота кадров : 25,000 кадр/сек
Цветовое пространство : YUV
Подвыборка цветности : 4:2:0
Битовая глубина : 8 бит
Тип развёртки : Прогрессивная
Метод сжатия : С потерями
Бит/(Пиксели*Кадры) : 0.416
Размер потока : 1,70 Гбайт (83%)
Библиотека кодирования : XviD 73
Аудио
Идентификатор : 1
Формат : AC-3
Формат/Информация : Audio Coding 3
Расширение режима : CM (complete main)
Идентификатор кодека : 2000
Продолжительность : 1 ч. 47 м.
Вид битрейта : Постоянный
Битрейт : 448 Кбит/сек
Каналы : 6 каналов
Расположение каналов : Front: L C R, Side: L R, LFE
Частота : 48,0 КГц
Битовая глубина : 16 бит
Метод сжатия : С потерями
Размер потока : 343 Мбайт (16%)
Выравнивание : Разделение по промежуткам
Продолжительность промежутка : 40 мс. (1,00 видеокадр)
Время предзагрузки промежутка : 500 ms


Релиз от:



   Похожие торренты   Торрент   Размер 
В этой теме нет новых непрочитанных сообщений. ДухLess 2 (2015) DVDRip | Лицензия

В этой теме нет новых непрочитанных сообщений. ДухLess 2 (2015) DVDRip от -=HD-NET=- | КПК | Лицензия

377 | 79

399.51 МБ

В этой теме нет новых непрочитанных сообщений. ДухLess 2 (2015) DVDRip-AVC | Лицензия

2099 | 109

1.46 ГБ

В этой теме нет новых непрочитанных сообщений. Духless 2 (2015) DVDRip от Scarabey | Лицензия

2609 | 72

1.45 ГБ

В этой теме нет новых непрочитанных сообщений. ДухLess 2 (2015) DVDRip-AVC от ExKinoRay | Лицензия

326 | 5

1.46 ГБ

В этой теме нет новых непрочитанных сообщений. ДухLess 2 (2015) DVDRip-AVC от ExKinoRay | Лицензия

101 | 3

745.18 МБ

В этой теме нет новых непрочитанных сообщений. Духless 2 (2015) DVDRip от Scarabey | Лицензия

261 | 6

745.72 МБ




Вы не можете начинать темы
Вы не можете отвечать на сообщения
Вы не можете редактировать свои сообщения
Вы не можете удалять свои сообщения
Вы не можете добавлять вложения

Перейти:  
Для Мосгорсуда, Роскомнадзора и рекламодателей: mosgorsud-torrent[собачка]yandex.ru
 Вход
ppkBB3cker v.2 © 2008-2014 @ PPK
[ Time : 0.037s | 15 Queries | GZIP : Off ]

Торрент трекер RUTOR.IN, Не можете зайти на rutor.org? Какой новый адрес рутор? Какое зеркало рутор? Не работает rutor.org и зеркала? Тогда наш торрент специально для вас. Rutor.in неофициальное зеркало rutor. В случае если у Вас заблокирован rutor или вдруг Вы не можете на него зайти, то Вы без труда сможете скачать бесплатно и без рекламы последние новинки кино, игр, сериалов и прочего у нас, на Rutor.in. Не нужно использовать прокси, чтобы зайти на рутор, достаточно воспользоваться нашим ресурсом. Все новые фильмы, игры, сериалы, книги и музыка за 2013 и 2014 годы через торрент бесплатно. Скачивайте фильмы в хорошем качестве, игры для пк, xbox, playstation без регистрации. У нас вы найдете новые Зарубежные сериалы и Русские сериалы 2013, 2014, 2015 годов. Оставайтесь с нами, качайте любимые фильмы, игры, сериалы, книги и музыку.