img image001 image001 image001 image001 image001 image001 image001 image001 image001 image001 image001 image001 image001 image001 image001

Planets Sun Sun Sun
Статистика раздачи
Автор: Nickolas3434 | Размер: 1.46 ГБ | Добавлен: 04 апр 2015
Раздают: 326    Качают: 5
Скачать торрент
Скачать торрент
Описание торрента

СообщениеДобавлено: 04 апр 2015 

Информация о фильме
Оригинальное название: ДухLess 2
Год выпуска: 2015
Жанр: Боевик, драма, экранизация
Выпущено: Россия, Арт Пикчерс Студия, Кинослово
Режиссер: Роман Прыгунов
В ролях: Данила Козловский, Мария Андреева, Милош Бикович, Павел Ворожцов, Сергей Бурунов, Владимир Симонов, Доминик Пинон, Александра Бортич, Яна Набокова, Анна Александрова, Лев Прыгунов
О фильме: Макс Андреев решил начать жизнь с чистого листа, для чего отправился на остров в Юго-Восточной Азии. Казалось, что теперь его идеальную жизнь ничто не нарушит, но однажды к нему приезжает старый друг из прошлой столичной жизни. Обстоятельства складываются так, что Макс возвращается на родину, где ему предстоит стать частью чего-то нового. Казалось, что он уже давно осознал все свои ошибки, и больше никогда не повторит их. Но вскоре ему предстоит встретиться со своим прошлым, которое он так и не смог отпустить…

Файл
Качество: DVDRip (AVC)
Видео: MPEG-4 AVC, 1502 Кбит/с, 720x300
Аудио: AC3, 6 ch, 448 Кбит/с
Размер: 1.46 ГБ
Продолжительность: 01:47:03
Язык: Русский
Общее
Уникальный идентификатор : 173992844259624392467656675585140418670 (0x82E5CD89FE77A6638FBD41609163686E)
Полное имя : D:ВидеоДухLess 2.2015.DVDRip-AVC by Vovan366(ExKinoRay).mkv
Формат : Matroska
Версия формата : Version 4 / Version 2
Размер файла : 1,46 Гбайт
Продолжительность : 1 ч. 47 м.
Общий поток : 1951 Кбит/сек
Название фильма : ДухLess 2.2015.DVDRip-AVC by Vovan366(ExKinoRay)
Дата кодирования : UTC 2015-04-03 13:43:03
Программа кодирования : mkvmerge v7.5.0 ('Glass Culture') 64bit built on Jan 4 2015 16:48:44
Библиотека кодирования : libebml v1.3.1 + libmatroska v1.4.2
DURATION : 01:47:03.744000000
NUMBER_OF_FRAMES : 200742
NUMBER_OF_BYTES : 359729664
_STATISTICS_WRITING_APP : mkvmerge v7.5.0 ('Glass Culture') 64bit built on Jan 4 2015 16:48:44
_STATISTICS_WRITING_DATE_UTC : 2015-04-03 13:43:03
_STATISTICS_TAGS : BPS DURATION NUMBER_OF_FRAMES NUMBER_OF_BYTES
Attachment : Yes
Видео
Идентификатор : 1
Формат : AVC
Формат/Информация : Advanced Video Codec
Профиль формата : High@L4.1
Параметр CABAC формата : Да
Параметр ReFrames формата : 9 кадров
Идентификатор кодека : V_MPEG4/ISO/AVC
Продолжительность : 1 ч. 47 м.
Битрейт : 1502 Кбит/сек
Ширина : 720 пикселей
Высота : 300 пикселей
Соотношение сторон : 2,40:1
Режим частоты кадров : Постоянный
Частота кадров : 25,000 кадров/сек
Цветовое пространство : YUV
Субдискретизация насыщенности : 4:2:0
Битовая глубина : 8 бит
Тип развёртки : Прогрессивная
Бит/(Пиксели*Кадры) : 0.278
Размер потока : 1,09 Гбайт (75%)
Заголовок : by Vovan366(ExKinoRay)
Библиотека кодирования : x264 core 130 r2273 b3065e6
Настройки программы : cabac=1 / ref=9 / deblock=1:-3:-3 / analyse=0x3:0x113 / me=umh / subme=10 / psy=1 / psy_rd=1.00:0.15 / mixed_ref=1 / me_range=32 / chroma_me=1 / trellis=2 / 8x8dct=1 / cqm=0 / deadzone=21,11 / fast_pskip=1 / chroma_qp_offset=-3 / threads=6 / lookahead_threads=1 / sliced_threads=0 / nr=0 / decimate=0 / interlaced=0 / bluray_compat=0 / constrained_intra=0 / bframes=9 / b_pyramid=2 / b_adapt=2 / b_bias=0 / direct=3 / weightb=1 / open_gop=0 / weightp=2 / keyint=240 / keyint_min=24 / scenecut=40 / intra_refresh=0 / rc=2pass / mbtree=0 / bitrate=1502 / ratetol=1.0 / qcomp=0.60 / qpmin=0 / qpmax=69 / qpstep=4 / cplxblur=20.0 / qblur=0.5 / ip_ratio=1.40 / pb_ratio=1.30 / aq=1:1.00
Default : Да
Forced : Нет
Аудио
Идентификатор : 2
Формат : AC-3
Формат/Информация : Audio Coding 3
Расширение режима : CM (complete main)
Параметр Endianness формата : Big
Идентификатор кодека : A_AC3
Продолжительность : 1 ч. 47 м.
Вид битрейта : Постоянный
Битрейт : 448 Кбит/сек
Каналы : 6 каналов
Расположение каналов : Front: L C R, Side: L R, LFE
Частота : 48,0 КГц
Битовая глубина : 16 бит
Метод сжатия : С потерями
Размер потока : 343 Мбайт (23%)
Язык : Russian
Default : Да
Forced : Нет
Меню
00:00:00.000 : en:00:00:00.000
00:10:23.600 : en:00:10:23.600
00:21:29.880 : en:00:21:29.880
00:27:33.200 : en:00:27:33.200
00:34:24.080 : en:00:34:24.080
00:45:09.440 : en:00:45:09.440
00:53:02.200 : en:00:53:02.200
01:02:42.320 : en:01:02:42.320
01:12:48.520 : en:01:12:48.520
01:20:06.840 : en:01:20:06.840
01:28:28.280 : en:01:28:28.280
01:39:18.200 : en:01:39:18.200



Релиз от:
Rip by: Vovan366



   Похожие торренты   Торрент   Размер 
В этой теме нет новых непрочитанных сообщений. ДухLess 2 (2015) DVDRip-AVC от ExKinoRay | Лицензия

101 | 3

745.18 МБ

В этой теме нет новых непрочитанных сообщений. ДухLess: Дилогия (2012-2015) BDRip от ExKinoRay | Лицензия

106 | 11

2.91 ГБ

В этой теме нет новых непрочитанных сообщений. ДухLess 2 (2015) DVDRip | Лицензия

В этой теме нет новых непрочитанных сообщений. ДухLess 2 (2015) DVDRip от -=HD-NET=- | КПК | Лицензия

377 | 79

399.51 МБ

В этой теме нет новых непрочитанных сообщений. ДухLess 2 (2015) DVDRip-AVC | Лицензия

2099 | 109

1.46 ГБ

В этой теме нет новых непрочитанных сообщений. Духless 2 (2015) DVDRip от Scarabey | Лицензия

2609 | 72

1.45 ГБ

В этой теме нет новых непрочитанных сообщений. Духless 2 (2015) DVDRip от AleksSin | Лицензия

598 | 9

2.05 ГБ




Вы не можете начинать темы
Вы не можете отвечать на сообщения
Вы не можете редактировать свои сообщения
Вы не можете удалять свои сообщения
Вы не можете добавлять вложения

Перейти:  
Для Мосгорсуда, Роскомнадзора и рекламодателей: mosgorsud-torrent[собачка]yandex.ru
 Вход
ppkBB3cker v.2 © 2008-2014 @ PPK
[ Time : 0.600s | 15 Queries | GZIP : Off ]

Торрент трекер RUTOR.IN, Не можете зайти на rutor.org? Какой новый адрес рутор? Какое зеркало рутор? Не работает rutor.org и зеркала? Тогда наш торрент специально для вас. Rutor.in неофициальное зеркало rutor. В случае если у Вас заблокирован rutor или вдруг Вы не можете на него зайти, то Вы без труда сможете скачать бесплатно и без рекламы последние новинки кино, игр, сериалов и прочего у нас, на Rutor.in. Не нужно использовать прокси, чтобы зайти на рутор, достаточно воспользоваться нашим ресурсом. Все новые фильмы, игры, сериалы, книги и музыка за 2013 и 2014 годы через торрент бесплатно. Скачивайте фильмы в хорошем качестве, игры для пк, xbox, playstation без регистрации. У нас вы найдете новые Зарубежные сериалы и Русские сериалы 2013, 2014, 2015 годов. Оставайтесь с нами, качайте любимые фильмы, игры, сериалы, книги и музыку.