img image001 image001 image001 image001 image001 image001 image001 image001 image001 image001 image001 image001 image001 image001 image001

Planets Sun Sun Sun
Статистика раздачи
Автор: Nickolas3434 | Размер: 2.65 ГБ | Добавлен: 06 апр 2015
Раздают: 54    Качают: 14
Скачать торрент
Скачать торрент
Описание торрента

СообщениеДобавлено: 06 апр 2015 

Оригинальное название: Охота на пиранью
Год выхода: 2006
Жанр: Боевик, триллер, криминал
Режиссер: Андрей Кавун
В ролях: Владимир Машков, Евгений Миронов, Андрей Мерзликин, Виктория Исакова, Сергей Гармаш, Михаил Ефремов, Александр Новин, Светлана Антонова, Анна Банщикова, Алексей Горбунов, Рамиль Сабитов, Юрий Пристром, Александр Голубев, Игорь Арташонов, Сергей Петров (II), Андрей Перепечко, Олег Кныш, Максим Дрозд, Олег Хатюшенко, Александр Олейников, Юлия Полубинская, Андрей Невраев, Александр Сирин, Анна Уколова, Владимир Новиков, Борис Полунин, Болот Байрышев, Сергей Сосновский, Светлана Худякова, Артём Кавун
О фильме: Под видом совместного отпуска агент спецподразделения «Пираньи» Кирилл Мазур (Владимир Машков) с коллегой Ольгой (Светлана Антонова) направляются в Сибирь с заданием ликвидировать склад секретного оружия в заброшенной лаборатории на дне таежного озера. Неожиданно они оказываются в мире, где законы цивилизации забыты, а смертоносное оружие захвачено бандитами под предводительством нового «хозяина тайги» Прохора (Евгений Миронов). Секретное оружие бандиты собираются перепродать террористам из группировки «Красный ислам». Однако Прохор задумывает поразвлечься охотой на людей. Мазур не ожидал, что ему придётся сменить привычный автомат на самодельный костяной нож, и спасать себя и напарницу, вместо того, чтобы спасать мир. Но и охотники не догадывались, что для них это сафари окажется не менее опасным, чем для живых мишеней.
Страна: Россия
Студия: Рекун-ТВ
Продолжительность: 4 х ~ 00:42:00
Язык: Русский
Кодек: MPEG-4 AVC
Качество: SATRip-AVC
Видео: 768x376, ~ 2000 Кбит/с, 25,000 fps
Звук: AC3, 2 ch, 256 Кбит/с
Семпл
General
Unique ID : 233903761244269650140482783820611953820 (0xAFF839CD46AC1A9A8E2506E80CD1A49C)
Complete name : I:инетОхота на пиранью.2006.x264.SATRip.(AVC)\02.mkv
Format : Matroska
Format version : Version 2
File size : 701 MiB
Duration : 43mn 25s
Overall bit rate : 2 259 Kbps
Encoded date : UTC 2015-04-04 06:59:15
Writing application : mkvmerge v4.0.0 ('The Stars were mine') сборка от Jun 6 2010 16:18:42
Writing library : libebml v1.0.0 + libmatroska v1.0.0
Attachements : cover.jpg
Video
ID : 1
Format : AVC
Format/Info : Advanced Video Codec
Format profile : High@L4.1
Format settings, CABAC : Yes
Format settings, ReFrames : 7 frames
Codec ID : V_MPEG4/ISO/AVC
Duration : 43mn 25s
Bit rate : 2 000 Kbps
Width : 768 pixels
Height : 376 pixels
Display aspect ratio : 2.043
Frame rate mode : Constant
Frame rate : 25.000 fps
Color space : YUV
Chroma subsampling : 4:2:0
Bit depth : 8 bits
Scan type : Progressive
Bits/(Pixel*Frame) : 0.277
Stream size : 608 MiB (87%)
Title : 2 серия
Writing library : x264 core 130 r2273 b3065e6
Encoding settings : cabac=1 / ref=7 / deblock=1:-2:-1 / analyse=0x3:0x133 / me=umh / subme=10 / psy=1 / psy_rd=1.00:0.10 / mixed_ref=1 / me_range=24 / chroma_me=1 / trellis=2 / 8x8dct=1 / cqm=0 / deadzone=21,11 / fast_pskip=0 / chroma_qp_offset=-3 / threads=6 / lookahead_threads=1 / sliced_threads=0 / nr=0 / decimate=1 / interlaced=0 / bluray_compat=0 / constrained_intra=0 / bframes=5 / b_pyramid=2 / b_adapt=2 / b_bias=0 / direct=3 / weightb=1 / open_gop=0 / weightp=2 / keyint=250 / keyint_min=23 / scenecut=40 / intra_refresh=0 / rc_lookahead=50 / rc=2pass / mbtree=1 / bitrate=2000 / ratetol=1.0 / qcomp=0.60 / qpmin=10 / qpmax=51 / qpstep=4 / cplxblur=20.0 / qblur=0.5 / ip_ratio=1.40 / aq=1:1.00
Language : Russian
Default : Yes
Forced : No
Audio
ID : 2
Format : AC-3
Format/Info : Audio Coding 3
Mode extension : CM (complete main)
Format settings, Endianness : Big
Codec ID : A_AC3
Duration : 43mn 25s
Bit rate mode : Constant
Bit rate : 256 Kbps
Channel(s) : 2 channels
Channel positions : Front: L R
Sampling rate : 48.0 KHz
Bit depth : 16 bits
Compression mode : Lossy
Stream size : 79.5 MiB (11%)
Language : Russian
Default : Yes
Forced : No



Релиз от: greenst



   Похожие торренты   Торрент   Размер 
В этой теме нет новых непрочитанных сообщений. Охота на пиранью (2006) SATRip от Scarabey | Телевизионная версия

61 | 6

2.89 ГБ

В этой теме нет новых непрочитанных сообщений. Охота на пиранью (2006) SATRip | Полная версия

552 | 33

2.06 ГБ

В этой теме нет новых непрочитанных сообщений. Охота на пиранью (Полная версия) [01-04 из 04] (2006) WEBRip-AVC

783 | 47

2.23 ГБ

В этой теме нет новых непрочитанных сообщений. Охота на пиранью (2006) SATRip | Телеверсия

263 | 37

1.47 ГБ

В этой теме нет новых непрочитанных сообщений. Охота на пиранью (2006) DVDRip

218 | 14

1.37 ГБ

В этой теме нет новых непрочитанных сообщений. Охота на пиранью (2006) DVDRip-AVC

531 | 56

2.9 ГБ

В этой теме нет новых непрочитанных сообщений. Охота на пиранью (2006) DVDRip

46 | 7

2.19 ГБ




Вы не можете начинать темы
Вы не можете отвечать на сообщения
Вы не можете редактировать свои сообщения
Вы не можете удалять свои сообщения
Вы не можете добавлять вложения

Перейти:  
Для Мосгорсуда, Роскомнадзора и рекламодателей: mosgorsud-torrent[собачка]yandex.ru
 Вход
ppkBB3cker v.2 © 2008-2014 @ PPK
[ Time : 0.025s | 14 Queries | GZIP : Off ]
CGP output time : 0.941s | 5 Queries | GZIP : Off

Торрент трекер RUTOR.IN, Не можете зайти на rutor.org? Какой новый адрес рутор? Какое зеркало рутор? Не работает rutor.org и зеркала? Тогда наш торрент специально для вас. Rutor.in неофициальное зеркало rutor. В случае если у Вас заблокирован rutor или вдруг Вы не можете на него зайти, то Вы без труда сможете скачать бесплатно и без рекламы последние новинки кино, игр, сериалов и прочего у нас, на Rutor.in. Не нужно использовать прокси, чтобы зайти на рутор, достаточно воспользоваться нашим ресурсом. Все новые фильмы, игры, сериалы, книги и музыка за 2013 и 2014 годы через торрент бесплатно. Скачивайте фильмы в хорошем качестве, игры для пк, xbox, playstation без регистрации. У нас вы найдете новые Зарубежные сериалы и Русские сериалы 2013, 2014, 2015 годов. Оставайтесь с нами, качайте любимые фильмы, игры, сериалы, книги и музыку.