img image001 image001 image001 image001 image001 image001 image001 image001 image001 image001 image001 image001 image001 image001 image001

Planets Sun Sun Sun
Статистика раздачи
Автор: Nickolas3434 | Размер: 744.95 МБ | Добавлен: 08 апр 2015
Раздают: 0    Качают: 4
Скачать торрент
Скачать торрент
Описание торрента

СообщениеДобавлено: 08 апр 2015 

Страна: СССР
Производство: Ленфильм
Жанр: драма
Год выпуска: 1972
Продолжительность: 01:34:58
Перевод: Не требуется
Cубтитры: нет
Оригинальная аудиодорожка: русский
Режиссер: Илья Авербах
В ролях:
Михаил Глузский, Маргарита Терехова, Марина Неелова, Станислав Любшин, Евгения Ханаева, Леонид Галлис, Леонид Неведомский, Валерий Матвеев, Эрнст Романов, Елена Захарова, Елена Капица, Вера Кавалерова...
Описание:
К старому профессору Сретенскому с его устоявшейся жизнью и порой нелепыми, но дорогими сердцу привычками, приезжают его непутевая дочь и юная внучка. О любви и нетерпимости этих людей друг к другу, порождающих конфликты, об умении понимать и прощать…





Источник: DVD5 R5
Качество видео: DVDRip
Формат видео: AVI
Видео: 624x448 (1,393:1), 25 fps, XviD ~ 959 kbps avg, 0.137 bit/pixel
Аудио: 48 kHz, MP3 2.0, 128 kbps
Раздача от:
Общее
Полное имя : Monolog.1975.DVDRip-745_[New-team]_by_AVP_Studio.avi
Формат : AVI
Формат/Информация : Audio Video Interleave
Размер файла : 745 Мбайт
Продолжительность : 1 ч. 34 м.
Общий поток : 1097 Кбит/сек
Программа кодирования : VirtualDubModRus 1.5.10.2 (build 2542/release)
Библиотека кодирования : VirtualDubMod build 2542/release
Видео
Идентификатор : 0
Формат : MPEG-4 Visual
Профиль формата : Advanced Simple@L5
Параметр BVOP формата : 1
Параметр QPel формата : Нет
Параметр GMC формата : Без точки перехода
Параметр матрицы формата : Выборочная
Идентификатор кодека : XVID
Идентификатор кодека/Подсказка : XviD
Продолжительность : 1 ч. 34 м.
Битрейт : 959 Кбит/сек
Ширина : 624 пикселя
Высота : 448 пикселей
Соотношение сторон : 1,393
Частота кадров : 25,000 кадров/сек
Цветовое пространство : YUV
Субдискретизация насыщенности : 4:2:0
Битовая глубина : 8 бит
Тип развёртки : Прогрессивная
Метод сжатия : С потерями
Бит/(Пиксели*Кадры) : 0.137
Размер потока : 651 Мбайт (87%)
Библиотека кодирования : XviD 73
Аудио
Идентификатор : 1
Формат : MPEG Audio
Версия формата : Version 1
Профиль формата : Layer 3
Идентификатор кодека : 55
Идентификатор кодека/Подсказка : MP3
Продолжительность : 1 ч. 34 м.
Вид битрейта : Постоянный
Битрейт : 128 Кбит/сек
Каналы : 2 канала
Частота : 48,0 КГц
Метод сжатия : С потерями
Размер потока : 86,9 Мбайт (12%)
Выравнивание : Соединение по промежуткам
Продолжительность промежутка : 40 мс. (1,00 видеокадр)
Время предзагрузки промежутка : 504 мс.
Библиотека кодирования : LAME3.99r
Настройки программы : -m s -V 4 -q 2 -lowpass 17 -b 128





   Похожие торренты   Торрент   Размер 
В этой теме нет новых непрочитанных сообщений. Монолог (1972) DVDRip от New-Team

15 | 5

1.09 ГБ

В этой теме нет новых непрочитанных сообщений. Монолог (1972) DVDRip-AVC от New-Team

34 | 15

1.09 ГБ

В этой теме нет новых непрочитанных сообщений. Монолог (1972) DVDRip

80 | 11

1.37 ГБ

В этой теме нет новых непрочитанных сообщений. Владимир Высоцкий - Монолог (2004) DVDRip от ExKinoRay

57 | 6

707.89 МБ

В этой теме нет новых непрочитанных сообщений. Частные хроники. Монолог (1999) IPTVRip от Pshichko66

37 | 2

1.37 ГБ

В этой теме нет новых непрочитанных сообщений. Монолог художника - Евсей Евсеевич Моисеенко (1975) DVB от AND03AND

2 | 3

366.59 МБ

В этой теме нет новых непрочитанных сообщений. Монолог в пяти частях. Эльдар Рязанов (1-5 выпуски) (2005) SATRip от Generalfilm

31 | 2

1.62 ГБ




Вы не можете начинать темы
Вы не можете отвечать на сообщения
Вы не можете редактировать свои сообщения
Вы не можете удалять свои сообщения
Вы не можете добавлять вложения

Перейти:  
Для Мосгорсуда, Роскомнадзора и рекламодателей: mosgorsud-torrent[собачка]yandex.ru
 Вход
ppkBB3cker v.2 © 2008-2014 @ PPK
[ Time : 0.536s | 17 Queries | GZIP : Off ]

Торрент трекер RUTOR.IN, Не можете зайти на rutor.org? Какой новый адрес рутор? Какое зеркало рутор? Не работает rutor.org и зеркала? Тогда наш торрент специально для вас. Rutor.in неофициальное зеркало rutor. В случае если у Вас заблокирован rutor или вдруг Вы не можете на него зайти, то Вы без труда сможете скачать бесплатно и без рекламы последние новинки кино, игр, сериалов и прочего у нас, на Rutor.in. Не нужно использовать прокси, чтобы зайти на рутор, достаточно воспользоваться нашим ресурсом. Все новые фильмы, игры, сериалы, книги и музыка за 2013 и 2014 годы через торрент бесплатно. Скачивайте фильмы в хорошем качестве, игры для пк, xbox, playstation без регистрации. У нас вы найдете новые Зарубежные сериалы и Русские сериалы 2013, 2014, 2015 годов. Оставайтесь с нами, качайте любимые фильмы, игры, сериалы, книги и музыку.
cron