img image001 image001 image001 image001 image001 image001 image001 image001 image001 image001 image001 image001 image001 image001 image001

Planets Sun Sun Sun
Статистика раздачи
Автор: Nickolas3434 | Размер: 3.84 ГБ | Добавлен: 07 апр 2015, 16:16
Раздают: 145    Качают: 21
Скачать торрент
Скачать торрент
Описание торрента

СообщениеДобавлено: 07 апр 2015, 16:16 

Оригинальное название: Непобедимый
Год выхода: 2008
Жанр: Боевик
Режиссер: Олег Погодин
В ролях: Владимир Епифанцев, Сергей Астахов, Ольга Фадеева, Юрий Соломин, Олег Вавилов, Владимир Стеклов, Сергей Векслер, Тагир Рахимов, Владимир Турчинский, Кит Маллет, Дмитрий Добужинский, Александр Хованский (II), Игорь Якимов, Александр Дрожжин, Александр Лырчиков, Денис Мошкин, Александр Черных (II), Олег Гостик, Дмитрий Савостин, Роман Климов, Яков Ефимов
О фильме: Егор Кремнёв — специальный агент российской разведки. В последнее время его преследуют неудачи: провал боевой операции в Колумбии, где Кремнёв руководил группой захвата, унёс жизни всех его товарищей. Кремнёва обвиняют в этой трагедии. Его лишают командирских полномочий. Теперь он — рядовой агент наблюдения. Но похоже на этом его беды не закончились. Во время последнего задания, которое обещало быть простым и безопасным, колумбийская трагедия повторилась — погибли все соратники Кремнёва. А человек, которого должны были захватить, оказался секретарём беглого олигарха Соркина — Михаилом Шерингом, давно находившимся в розыске. У Шеринга, по слухам, есть секретные бумаги, за которыми охотится не только российская разведка, но и могущественный преступный синдикат Запада. Теперь Кремнёву предстоит сложная задача — доставить Шеринга на родину.
Страна: Россия
Студия: Кинокомпания "Парк Синема"
Продолжительность: 4 х ~ 00:51:00
Язык: Русский
Кодек: MPEG-4 AVC
Качество: DVDRip (AVC)
Видео: 768x418, ~ 2500 Кбит/с, 25,000 fps
Звук: AC3, 2 ch, 192 Кбит/с
Семпл
General
Unique ID : 171466724151662348072939001992077491149 (0x80FF4A33AC4915EE955101A418C9BBCD)
Complete name : J:Непобедимый.2008.x264.DVDRip.(AVC)2.mkv
Format : Matroska
Format version : Version 2
File size : 981 MiB
Duration : 50mn 54s
Overall bit rate : 2 695 Kbps
Encoded date : UTC 2015-04-06 13:08:34
Writing application : mkvmerge v4.0.0 ('The Stars were mine') сборка от Jun 6 2010 16:18:42
Writing library : libebml v1.0.0 + libmatroska v1.0.0
Attachements : cover.jpg
Video
ID : 1
Format : AVC
Format/Info : Advanced Video Codec
Format profile : High@L4.1
Format settings, CABAC : Yes
Format settings, ReFrames : 7 frames
Codec ID : V_MPEG4/ISO/AVC
Duration : 50mn 54s
Bit rate : 2 500 Kbps
Width : 768 pixels
Height : 418 pixels
Display aspect ratio : 1.85:1
Frame rate mode : Constant
Frame rate : 25.000 fps
Color space : YUV
Chroma subsampling : 4:2:0
Bit depth : 8 bits
Scan type : Progressive
Bits/(Pixel*Frame) : 0.312
Stream size : 892 MiB (91%)
Title : 2 серия
Writing library : x264 core 130 r2273 b3065e6
Encoding settings : cabac=1 / ref=7 / deblock=1:-2:-1 / analyse=0x3:0x133 / me=umh / subme=10 / psy=1 / psy_rd=1.00:0.10 / mixed_ref=1 / me_range=24 / chroma_me=1 / trellis=2 / 8x8dct=1 / cqm=0 / deadzone=21,11 / fast_pskip=0 / chroma_qp_offset=-3 / threads=6 / lookahead_threads=1 / sliced_threads=0 / nr=0 / decimate=1 / interlaced=0 / bluray_compat=0 / constrained_intra=0 / bframes=5 / b_pyramid=2 / b_adapt=2 / b_bias=0 / direct=3 / weightb=1 / open_gop=0 / weightp=2 / keyint=250 / keyint_min=23 / scenecut=40 / intra_refresh=0 / rc_lookahead=50 / rc=2pass / mbtree=1 / bitrate=2500 / ratetol=1.0 / qcomp=0.60 / qpmin=10 / qpmax=51 / qpstep=4 / cplxblur=20.0 / qblur=0.5 / ip_ratio=1.40 / aq=1:1.00
Language : Russian
Default : Yes
Forced : No
Audio
ID : 2
Format : AC-3
Format/Info : Audio Coding 3
Mode extension : CM (complete main)
Format settings, Endianness : Big
Codec ID : A_AC3
Duration : 50mn 54s
Bit rate mode : Constant
Bit rate : 192 Kbps
Channel(s) : 2 channels
Channel positions : Front: L R
Sampling rate : 48.0 KHz
Bit depth : 16 bits
Compression mode : Lossy
Stream size : 69.9 MiB (7%)
Language : Russian
Default : Yes
Forced : No



Релиз от: greenst



   Похожие торренты   Торрент   Размер 
В этой теме нет новых непрочитанных сообщений. Непобедимый (2008) DVDRip

52 | 14

1.37 ГБ

В этой теме нет новых непрочитанных сообщений. Непобедимый (2008) DVDRip от Kinobomond

19 | 8

1.46 ГБ

В этой теме нет новых непрочитанных сообщений. Непобедимый (2008) DVDRip (BDRip) - Zona-X

1 | 23

2.18 ГБ

В этой теме нет новых непрочитанных сообщений. Непобедимый [Телевизионная версия] (2008) DVDRip от olger

115 | 13

2.91 ГБ

В этой теме нет новых непрочитанных сообщений. Непобедимый (2008) DVB

13 | 2

2.89 ГБ

В этой теме нет новых непрочитанных сообщений. Непобедимый / Man of East (2008) Blu-Ray

1 | 5

22.34 ГБ

В этой теме нет новых непрочитанных сообщений. Непобедимый (2008) BDRip-AVC от 0ptimus

185 | 19

1.67 ГБ




Вы не можете начинать темы
Вы не можете отвечать на сообщения
Вы не можете редактировать свои сообщения
Вы не можете удалять свои сообщения
Вы не можете добавлять вложения

Перейти:  
Для Мосгорсуда, Роскомнадзора и рекламодателей: mosgorsud-torrent[собачка]yandex.ru
Настройки
ppkBB3cker v.2 © 2008-2014 @ PPK
[ Time : 0.022s | 15 Queries | GZIP : Off ]
CGP [Extreme] output time : 0.00019s | 0 Queries | GZIP : Off

Торрент трекер RUTOR.IN, Не можете зайти на rutor.org? Какой новый адрес рутор? Какое зеркало рутор? Не работает rutor.org и зеркала? Тогда наш торрент специально для вас. Rutor.in неофициальное зеркало rutor. В случае если у Вас заблокирован rutor или вдруг Вы не можете на него зайти, то Вы без труда сможете скачать бесплатно и без рекламы последние новинки кино, игр, сериалов и прочего у нас, на Rutor.in. Не нужно использовать прокси, чтобы зайти на рутор, достаточно воспользоваться нашим ресурсом. Все новые фильмы, игры, сериалы, книги и музыка за 2013 и 2014 годы через торрент бесплатно. Скачивайте фильмы в хорошем качестве, игры для пк, xbox, playstation без регистрации. У нас вы найдете новые Зарубежные сериалы и Русские сериалы 2013, 2014, 2015 годов. Оставайтесь с нами, качайте любимые фильмы, игры, сериалы, книги и музыку.