img image001 image001 image001 image001 image001 image001 image001 image001 image001 image001 image001 image001 image001 image001 image001

Planets Sun Sun Sun
Статистика раздачи
Автор: Nickolas3434 | Размер: 1.09 ГБ | Добавлен: 09 апр 2015
Раздают: 7    Качают: 4
Скачать торрент
Скачать торрент
Описание торрента

СообщениеДобавлено: 09 апр 2015 

Страна: СССР
Производство: Союздетфильм
Жанр: драма, военный
Год выпуска: 1944
Продолжительность: 01:26:15
Перевод: Не требуется
Cубтитры: нет
Оригинальная аудиодорожка: русский
Режиссер: Лев Арнштам
В ролях:
Галина Водяницкая, Тамара Альцева, Алексей Баталов, Ростислав Плятт, Борис Подгорный, Вера Попова, Борис Пославский, Николай Рыжов, Екатерина Скворцова, Ксения Тарасова...
Описание:
О борьбе партизан Подмосковья в годы Великой Отечественной войны, о партизанке-разведчице Зое Космодемьянской (1923-1941), казненной фашистами в деревне Петрищево.





Источник: DVB
Качество видео: SATRip
Формат видео: AVI
Видео: 720x544 (4:3), 25 fps, XviD ~ 1673 kbps avg, 0.171 bit/pixel
Аудио: 48 kHz, Dolby Digital AC3 2.0, 128 kbps
Раздача от:
Общее
Полное имя : Zoya.1944.SATRip_[New-team]_by_AVP_Studio.avi
Формат : AVI
Формат/Информация : Audio Video Interleave
Размер файла : 1,09 Гбайт
Продолжительность : 1 ч. 26 м.
Общий поток : 1811 Кбит/сек
Программа кодирования : VirtualDubModRus 1.5.10.2 (build 2542/release)
Библиотека кодирования : VirtualDubMod build 2542/release
Видео
Идентификатор : 0
Формат : MPEG-4 Visual
Профиль формата : Advanced Simple@L5
Параметр BVOP формата : 1
Параметр QPel формата : Нет
Параметр GMC формата : Без точки перехода
Параметр матрицы формата : Выборочная
Идентификатор кодека : XVID
Идентификатор кодека/Подсказка : XviD
Продолжительность : 1 ч. 26 м.
Битрейт : 1673 Кбит/сек
Ширина : 720 пикселей
Высота : 544 пикселя
Соотношение сторон : 4:3
Частота кадров : 25,000 кадров/сек
Цветовое пространство : YUV
Субдискретизация насыщенности : 4:2:0
Битовая глубина : 8 бит
Тип развёртки : Прогрессивная
Метод сжатия : С потерями
Бит/(Пиксели*Кадры) : 0.171
Размер потока : 1,01 Гбайт (92%)
Библиотека кодирования : XviD 73
Аудио
Идентификатор : 1
Формат : AC-3
Формат/Информация : Audio Coding 3
Расширение режима : CM (complete main)
Параметр Endianness формата : Big
Идентификатор кодека : 2000
Продолжительность : 1 ч. 26 м.
Вид битрейта : Постоянный
Битрейт : 128 Кбит/сек
Каналы : 2 канала
Расположение каналов : Front: L R
Частота : 48,0 КГц
Битовая глубина : 16 бит
Метод сжатия : С потерями
Размер потока : 79,0 Мбайт (7%)
Выравнивание : Разделение по промежуткам
Продолжительность промежутка : 40 мс. (1,00 видеокадр)
Время предзагрузки промежутка : 500 мс





   Похожие торренты   Торрент   Размер 
В этой теме нет новых непрочитанных сообщений. 1944 / 1944 (2015) BDRip-AVC от New-Team | Лицензия

1595 | 183

1.46 ГБ

В этой теме нет новых непрочитанных сообщений. 1944 / 1944 (2015) BDRip-AVC от New-Team | Лицензия

184 | 20

2.18 ГБ

В этой теме нет новых непрочитанных сообщений. Зоя (1944) DVDRip от New-Team

11 | 4

750 МБ

В этой теме нет новых непрочитанных сообщений. Зоя (1944) DVDRip-AVC от New-Team

13 | 4

1.09 ГБ

В этой теме нет новых непрочитанных сообщений. Поединок (1944) DVDRip от New-Team

51 | 8

742.88 МБ

В этой теме нет новых непрочитанных сообщений. Поединок (1944) DVDRip-AVC от New-Team

35 | 7

743.86 МБ

В этой теме нет новых непрочитанных сообщений. Человек №217 (1944) DVDRip-AVC от New-Team

19 | 13

1.46 ГБ




Вы не можете начинать темы
Вы не можете отвечать на сообщения
Вы не можете редактировать свои сообщения
Вы не можете удалять свои сообщения
Вы не можете добавлять вложения

Перейти:  
Для Мосгорсуда, Роскомнадзора и рекламодателей: mosgorsud-torrent[собачка]yandex.ru
 Вход
ppkBB3cker v.2 © 2008-2014 @ PPK
[ Time : 0.041s | 15 Queries | GZIP : Off ]

Торрент трекер RUTOR.IN, Не можете зайти на rutor.org? Какой новый адрес рутор? Какое зеркало рутор? Не работает rutor.org и зеркала? Тогда наш торрент специально для вас. Rutor.in неофициальное зеркало rutor. В случае если у Вас заблокирован rutor или вдруг Вы не можете на него зайти, то Вы без труда сможете скачать бесплатно и без рекламы последние новинки кино, игр, сериалов и прочего у нас, на Rutor.in. Не нужно использовать прокси, чтобы зайти на рутор, достаточно воспользоваться нашим ресурсом. Все новые фильмы, игры, сериалы, книги и музыка за 2013 и 2014 годы через торрент бесплатно. Скачивайте фильмы в хорошем качестве, игры для пк, xbox, playstation без регистрации. У нас вы найдете новые Зарубежные сериалы и Русские сериалы 2013, 2014, 2015 годов. Оставайтесь с нами, качайте любимые фильмы, игры, сериалы, книги и музыку.