img image001 image001 image001 image001 image001 image001 image001 image001 image001 image001 image001 image001 image001 image001 image001

Planets Sun Sun Sun
Статистика раздачи
Автор: Nickolas3434 | Размер: 1.46 ГБ | Добавлен: 09 апр 2015
Раздают: 7    Качают: 4
Скачать торрент
Скачать торрент
Описание торрента

СообщениеДобавлено: 09 апр 2015 

Страна: СССР
Производство: Мосфильм, Студия Ташкент
Жанр: драма
Год выпуска: 1944
Продолжительность: 01:39:33
Перевод: Не требуется
Cубтитры: нет
Оригинальная аудиодорожка: русский
Режиссер: Михаил Ромм
В ролях:
Владимир Балашов, Татьяна Барышева, Генрих Грайф, Елена Кузьмина, Анна Лисянская, Григорий Михайлов, Лидия Сухаревская, Павел Суханов, Василий Зайчиков, Владимир Владиславский...
Описание:
В немецкий городок прибывает очередная партия угнанных фашистами советских людей. «Человек N 217» — русская девушка Таня — продана бакалейщику, у которого дворником работает советский ученый-математик. Смерть ученого, замученного хозяевами и эсэсовцами, вызывает в девушке твердую решимость мстить за погибшего и бороться за свою свободу…





Источник: DVD5 R5
Качество видео: DVDRip
Формат видео: AVI
Видео: 688x512 (4:3), 25 fps, XviD ~ 1898 kbps avg, 0.216 bit/pixel
Аудио: 48 kHz, Dolby Digital AC3 2.0, 192 kbps
Раздача от:
Общее
Полное имя : Chelovek.№217.1944.DVDRip_[New-team]_by_AVP_Studio.avi
Формат : AVI
Формат/Информация : Audio Video Interleave
Размер файла : 1,46 Гбайт
Продолжительность : 1 ч. 39 м.
Общий поток : 2099 Кбит/сек
Программа кодирования : VirtualDubModRus 1.5.10.2 (build 2542/release)
Библиотека кодирования : VirtualDubMod build 2542/release
Видео
Идентификатор : 0
Формат : MPEG-4 Visual
Профиль формата : Advanced Simple@L5
Параметр BVOP формата : 1
Параметр QPel формата : Нет
Параметр GMC формата : Без точки перехода
Параметр матрицы формата : Выборочная
Идентификатор кодека : XVID
Идентификатор кодека/Подсказка : XviD
Продолжительность : 1 ч. 39 м.
Битрейт : 1898 Кбит/сек
Ширина : 688 пикселей
Высота : 512 пикселей
Соотношение сторон : 4:3
Частота кадров : 25,000 кадров/сек
Цветовое пространство : YUV
Субдискретизация насыщенности : 4:2:0
Битовая глубина : 8 бит
Тип развёртки : Прогрессивная
Метод сжатия : С потерями
Бит/(Пиксели*Кадры) : 0.216
Размер потока : 1,32 Гбайт (90%)
Библиотека кодирования : XviD 73
Аудио
Идентификатор : 1
Формат : AC-3
Формат/Информация : Audio Coding 3
Расширение режима : CM (complete main)
Параметр Endianness формата : Big
Идентификатор кодека : 2000
Продолжительность : 1 ч. 39 м.
Вид битрейта : Постоянный
Битрейт : 192 Кбит/сек
Каналы : 2 канала
Расположение каналов : Front: L R
Частота : 48,0 КГц
Битовая глубина : 16 бит
Метод сжатия : С потерями
Размер потока : 137 Мбайт (9%)
Выравнивание : Разделение по промежуткам
Продолжительность промежутка : 40 мс. (1,00 видеокадр)
Время предзагрузки промежутка : 500 мс





   Похожие торренты   Торрент   Размер 
В этой теме нет новых непрочитанных сообщений. Человек №217 (1944) DVDRip-AVC от New-Team

15 | 7

1.46 ГБ

В этой теме нет новых непрочитанных сообщений. Человек №217 (1944) DVDRip от New-Team

5 | 7

745.96 МБ

В этой теме нет новых непрочитанных сообщений. 1944 / 1944 (2015) BDRip-AVC от New-Team | Лицензия

146 | 14

2.18 ГБ

В этой теме нет новых непрочитанных сообщений. 1944 / 1944 (2015) BDRip-AVC от New-Team | Лицензия

1486 | 170

1.46 ГБ

В этой теме нет новых непрочитанных сообщений. Зоя (1944) DVDRip от New-Team

10 | 3

750 МБ

В этой теме нет новых непрочитанных сообщений. Зоя (1944) DVDRip от New-Team

7 | 4

1.09 ГБ

В этой теме нет новых непрочитанных сообщений. Зоя (1944) DVDRip-AVC от New-Team

8 | 3

1.09 ГБ




Вы не можете начинать темы
Вы не можете отвечать на сообщения
Вы не можете редактировать свои сообщения
Вы не можете удалять свои сообщения
Вы не можете добавлять вложения

Перейти:  
Для Мосгорсуда, Роскомнадзора и рекламодателей: mosgorsud-torrent[собачка]yandex.ru
 Вход
ppkBB3cker v.2 © 2008-2014 @ PPK
[ Time : 0.037s | 16 Queries | GZIP : Off ]

cron