img image001 image001 image001 image001 image001 image001 image001 image001 image001 image001 image001 image001 image001 image001 image001

Planets Sun Sun Sun
Статистика раздачи
Автор: Nickolas3434 | Размер: 1.09 ГБ | Добавлен: 10 апр 2015
Раздают: 11    Качают: 6
Скачать торрент
Скачать торрент
Описание торрента

СообщениеДобавлено: 10 апр 2015 

Страна: СССР
Производство: Мосфильм
Жанр: драма, военный
Год выпуска: 1944
Продолжительность: 01:25:46
Перевод: Не требуется
Cубтитры: нет
Оригинальная аудиодорожка: русский
Режиссер: Игорь Савченко
В ролях:
Иван Переверзев, Михаил Сидоркин, Борис Чирков, Степан Каюков, Эраст Гарин, Зоя Федорова, Всеволод Санаев, С.Никонов, М.Румянцев...
Описание:
Лето 1942 года. Моряки черноморского флота Иван Никулин и Василий Клевцов возвращаются в свои экипажи. В поезде к ним присоединяются другие матросы. Неожиданно путь эшелону преграждает фашистский десант. Краснофлотцы дают решительный отпор, но вынужденные далее следовать своим ходом, организовывают партизанский отряд во главе с Иваном Никулиным — и продолжают героический путь к Черному морю. В основе фильма — реальный факт из публикации газеты «Красный флот».





Источник: DVD5 R5
Качество видео: DVDRip
Формат видео: AVI
Видео: 688x512 (4:3), 25 fps, XviD ~ 1615 kbps avg, 0.183 bit/pixel
Аудио: 48 kHz, Dolby Digital AC3 2.0, 192 kbps
Раздача от:
Общее
Полное имя : Ivan.Nikulin.russkiy.matros.1944.DVDRip_[New-team]_by_AVP_Studio.avi
Формат : AVI
Формат/Информация : Audio Video Interleave
Размер файла : 1,09 Гбайт
Продолжительность : 1 ч. 25 м.
Общий поток : 1817 Кбит/сек
Программа кодирования : VirtualDubModRus 1.5.10.2 (build 2542/release)
Библиотека кодирования : VirtualDubMod build 2542/release
Видео
Идентификатор : 0
Формат : MPEG-4 Visual
Профиль формата : Advanced Simple@L5
Параметр BVOP формата : 1
Параметр QPel формата : Нет
Параметр GMC формата : Без точки перехода
Параметр матрицы формата : Выборочная
Идентификатор кодека : XVID
Идентификатор кодека/Подсказка : XviD
Продолжительность : 1 ч. 25 м.
Битрейт : 1615 Кбит/сек
Ширина : 688 пикселей
Высота : 512 пикселей
Соотношение сторон : 4:3
Частота кадров : 25,000 кадров/сек
Цветовое пространство : YUV
Субдискретизация насыщенности : 4:2:0
Битовая глубина : 8 бит
Тип развёртки : Прогрессивная
Метод сжатия : С потерями
Бит/(Пиксели*Кадры) : 0.183
Размер потока : 991 Мбайт (89%)
Библиотека кодирования : XviD 73
Аудио
Идентификатор : 1
Формат : AC-3
Формат/Информация : Audio Coding 3
Расширение режима : CM (complete main)
Параметр Endianness формата : Big
Идентификатор кодека : 2000
Продолжительность : 1 ч. 25 м.
Вид битрейта : Постоянный
Битрейт : 192 Кбит/сек
Каналы : 2 канала
Расположение каналов : Front: L R
Частота : 48,0 КГц
Битовая глубина : 16 бит
Метод сжатия : С потерями
Размер потока : 118 Мбайт (11%)
Выравнивание : Разделение по промежуткам
Продолжительность промежутка : 40 мс. (1,00 видеокадр)
Время предзагрузки промежутка : 500 мс





   Похожие торренты   Торрент   Размер 
В этой теме нет новых непрочитанных сообщений. Иван Никулин - русский матрос (1944) DVDRip-AVC от New-Team

27 | 5

1.09 ГБ

В этой теме нет новых непрочитанных сообщений. Иван Никулин - русский матрос (1944) DVDRip от New-Team

6 | 15

744.26 МБ

В этой теме нет новых непрочитанных сообщений. Иван Никулин - русский матрос (1944) DVDRip

62 | 6

1.37 ГБ

В этой теме нет новых непрочитанных сообщений. Иван Грозный (1944) DVDRip от New-Team

23 | 14

1.46 ГБ

В этой теме нет новых непрочитанных сообщений. Иван Грозный (1944) DVDRip-AVC от New-Team

93 | 13

2.18 ГБ

В этой теме нет новых непрочитанных сообщений. Иван Грозный (1944) DVDRip от New-Team

48 | 5

2.18 ГБ

В этой теме нет новых непрочитанных сообщений. Иван Грозный (1944-1945) DVDRip

385 | 24

2.85 ГБ




Вы не можете начинать темы
Вы не можете отвечать на сообщения
Вы не можете редактировать свои сообщения
Вы не можете удалять свои сообщения
Вы не можете добавлять вложения

Перейти:  
Для Мосгорсуда, Роскомнадзора и рекламодателей: mosgorsud-torrent[собачка]yandex.ru
 Вход
ppkBB3cker v.2 © 2008-2014 @ PPK
[ Time : 0.021s | 17 Queries | GZIP : Off ]

Торрент трекер RUTOR.IN, Не можете зайти на rutor.org? Какой новый адрес рутор? Какое зеркало рутор? Не работает rutor.org и зеркала? Тогда наш торрент специально для вас. Rutor.in неофициальное зеркало rutor. В случае если у Вас заблокирован rutor или вдруг Вы не можете на него зайти, то Вы без труда сможете скачать бесплатно и без рекламы последние новинки кино, игр, сериалов и прочего у нас, на Rutor.in. Не нужно использовать прокси, чтобы зайти на рутор, достаточно воспользоваться нашим ресурсом. Все новые фильмы, игры, сериалы, книги и музыка за 2013 и 2014 годы через торрент бесплатно. Скачивайте фильмы в хорошем качестве, игры для пк, xbox, playstation без регистрации. У нас вы найдете новые Зарубежные сериалы и Русские сериалы 2013, 2014, 2015 годов. Оставайтесь с нами, качайте любимые фильмы, игры, сериалы, книги и музыку.