img image001 image001 image001 image001 image001 image001 image001 image001 image001 image001 image001 image001 image001 image001 image001

Planets Sun Sun Sun
Статистика раздачи
Автор: Nickolas3434 | Размер: 3.81 ГБ | Добавлен: 10 апр 2015
Раздают: 310    Качают: 25
Скачать торрент
Скачать торрент
Описание торрента

СообщениеДобавлено: 10 апр 2015 

Оригинальное название: Убойная сила 6: Мыс Доброй Надежды
Год выхода: 2005
Жанр: Детектив
Режиссер: Дмитрий Иосифов
В ролях: Константин Хабенский, Андрей Федорцов, Евгений Ганелин, Сергей Кошонин, Александр Тютрюмов, Семён Стругачёв, Михаил Пореченков, Георгий Штиль, Валерий Золотухин, Гоша Куценко, Анна Михалкова, Александр Робак, Елизавета Боярская, Андрей Мерзликин, Григорий Сиятвинда, Марат Башаров, Сергей Векслер, Владислав Галкин.
О фильме: К начальнику убойного отдела Егорову обращается бизнесмен Жданович с просьбой помочь в расследовании таинственного исчезновения его друга и компаньона Данилова. Данилов отправился на сафари в Африку и там бесследно пропал. Лучшие опера отдела Плахов, Рогов и Уваров, у которых есть в Африке влиятельные знакомые, снаряжаются в путь…
Страна: Россия
Студия: Ленфильм, Общественное Российское Телевидение (ОРТ)
Продолжительность: 3 х ~ 00:51:00 + 00:39:06
Язык: Русский
Кодек: MPEG-4 AVC
Качество: DVDRip (AVC)
Видео: 764x412, ~ 2500 Кбит/с, 25,000 fps
Звук: AC3, 2 ch, 448 Кбит/с
Семпл
General
Unique ID : 229753790046144011371894335215611436659 (0xACD8F86CB33D1DA994BF2237CB705E73)
Complete name : J:инетУбойная сила 6. Мыс Доброй Надежды.2005.x264.DVDRip.(AVC)\02.mkv
Format : Matroska
Format version : Version 2
File size : 1.04 GiB
Duration : 50mn 14s
Overall bit rate : 2 950 Kbps
Encoded date : UTC 2015-04-07 12:45:56
Writing application : mkvmerge v4.0.0 ('The Stars were mine') сборка от Jun 6 2010 16:18:42
Writing library : libebml v1.0.0 + libmatroska v1.0.0
Attachements : cover.jpg
Video
ID : 1
Format : AVC
Format/Info : Advanced Video Codec
Format profile : High@L4.1
Format settings, CABAC : Yes
Format settings, ReFrames : 7 frames
Codec ID : V_MPEG4/ISO/AVC
Duration : 50mn 14s
Bit rate : 2 500 Kbps
Width : 764 pixels
Height : 412 pixels
Display aspect ratio : 1.85:1
Frame rate mode : Constant
Frame rate : 25.000 fps
Color space : YUV
Chroma subsampling : 4:2:0
Bit depth : 8 bits
Scan type : Progressive
Bits/(Pixel*Frame) : 0.318
Stream size : 878 MiB (83%)
Title : 02
Writing library : x264 core 130 r2273 b3065e6
Encoding settings : cabac=1 / ref=7 / deblock=1:-2:-1 / analyse=0x3:0x133 / me=umh / subme=10 / psy=1 / psy_rd=1.00:0.10 / mixed_ref=1 / me_range=24 / chroma_me=1 / trellis=2 / 8x8dct=1 / cqm=0 / deadzone=21,11 / fast_pskip=0 / chroma_qp_offset=-3 / threads=6 / lookahead_threads=1 / sliced_threads=0 / nr=0 / decimate=1 / interlaced=0 / bluray_compat=0 / constrained_intra=0 / bframes=5 / b_pyramid=2 / b_adapt=2 / b_bias=0 / direct=3 / weightb=1 / open_gop=0 / weightp=2 / keyint=250 / keyint_min=23 / scenecut=40 / intra_refresh=0 / rc_lookahead=50 / rc=2pass / mbtree=1 / bitrate=2500 / ratetol=1.0 / qcomp=0.60 / qpmin=10 / qpmax=51 / qpstep=4 / cplxblur=20.0 / qblur=0.5 / ip_ratio=1.40 / aq=1:1.00
Language : Russian
Default : Yes
Forced : No
Audio
ID : 2
Format : AC-3
Format/Info : Audio Coding 3
Mode extension : CM (complete main)
Format settings, Endianness : Big
Codec ID : A_AC3
Duration : 50mn 14s
Bit rate mode : Constant
Bit rate : 448 Kbps
Channel(s) : 2 channels
Channel positions : Front: L R
Sampling rate : 48.0 KHz
Bit depth : 16 bits
Compression mode : Lossy
Stream size : 161 MiB (15%)
Language : Russian
Default : Yes
Forced : No



Релиз от: greenst



   Похожие торренты   Торрент   Размер 
В этой теме нет новых непрочитанных сообщений. Убойная сила [S06] (2005) DVDRip-AVC, SATRip-AVC

9 | 0

8.4 ГБ

В этой теме нет новых непрочитанных сообщений. Убойная сила [S01-06] (2000-2005) DVDRip

679 | 359

30.03 ГБ

В этой теме нет новых непрочитанных сообщений. Убойная сила [S06] (2004) DVDRip-AVC

0 | 3

8.49 ГБ

В этой теме нет новых непрочитанных сообщений. Убойная сила [S03] (2001) DVDRip-AVC

9 | 6

7.12 ГБ

В этой теме нет новых непрочитанных сообщений. Убойная сила [S02] (2001) DVDRip-AVC

6 | 6

7.83 ГБ

В этой теме нет новых непрочитанных сообщений. Убойная сила [S02] (2001) DVDRip-AVC

3 | 1

5.24 ГБ

В этой теме нет новых непрочитанных сообщений. Убойная сила [S01] (2000) DVDRip-AVC

6 | 3

6.42 ГБ




Вы не можете начинать темы
Вы не можете отвечать на сообщения
Вы не можете редактировать свои сообщения
Вы не можете удалять свои сообщения
Вы не можете добавлять вложения

Перейти:  
Для Мосгорсуда, Роскомнадзора и рекламодателей: mosgorsud-torrent[собачка]yandex.ru
 Вход
ppkBB3cker v.2 © 2008-2014 @ PPK
[ Time : 0.109s | 15 Queries | GZIP : Off ]

Торрент трекер RUTOR.IN, Не можете зайти на rutor.org? Какой новый адрес рутор? Какое зеркало рутор? Не работает rutor.org и зеркала? Тогда наш торрент специально для вас. Rutor.in неофициальное зеркало rutor. В случае если у Вас заблокирован rutor или вдруг Вы не можете на него зайти, то Вы без труда сможете скачать бесплатно и без рекламы последние новинки кино, игр, сериалов и прочего у нас, на Rutor.in. Не нужно использовать прокси, чтобы зайти на рутор, достаточно воспользоваться нашим ресурсом. Все новые фильмы, игры, сериалы, книги и музыка за 2013 и 2014 годы через торрент бесплатно. Скачивайте фильмы в хорошем качестве, игры для пк, xbox, playstation без регистрации. У нас вы найдете новые Зарубежные сериалы и Русские сериалы 2013, 2014, 2015 годов. Оставайтесь с нами, качайте любимые фильмы, игры, сериалы, книги и музыку.