img image001 image001 image001 image001 image001 image001 image001 image001 image001 image001 image001 image001 image001 image001 image001

Planets Sun Sun Sun
Статистика раздачи
Автор: Nickolas3434 | Размер: 744.74 МБ | Добавлен: 13 апр 2015
Раздают: 43    Качают: 4
Скачать торрент
Скачать торрент
Описание торрента

СообщениеДобавлено: 13 апр 2015 

Информация о фильме
Название: Альпинисты
Год выхода: 2013
Жанр: Приключения, боевик
Режиссер: Аршо Арутюнян
В ролях: Наталья Бардо, Дмитрий Клепацкий, Александр Носик, Александр Рапопорт, Наталья Громушкина, Арам Караханян, Дэвид Кацарава, Виген Степанян, Армен Петросян, Ерванд Енгибаряняк
О фильме:
Однажды два друга-альпиниста, работающих горными спасателями, влюбленных в одну и ту же девушку, сопровождают туристов в горах Армении. В результате безответственности одного из друзей погибает турист! По решению суда он попадает в тюрьму. В обмен на свободу криминальный авторитет предлагает ему быть горным проводником в одном деле. Нужно достать припрятанный в горной пещере до лучших времен клад. Дороги друзей пересекаются! Их любимую берут в заложники. Им самим угрожает смерть, но отступать некуда… Дружба, обида, корысть, любовь, страх за жизнь - что в результате победит?
Страна: Россия
Студия: BERG SOUND
Продолжительность: 01:26:35
Перевод: Не требуется
Файл
Кодек: XviD
Качество: HDTVRip Исходник
Видео: 624x352 (1.77:1), 25 fps, XviD build 73 ~1064 kbps avg, 0.19 bit/pixel
Звук: 48 kHz, MPEG Layer 3, 2 ch, ~128.00 kbps avg
Субтитры: Отсутствует
Семпл
General
Complete name : D:Рипы изготовлениеAlpinisty.2013.HDTVRip.от Шкипер.avi
Format : AVI
Format/Info : Audio Video Interleave
File size : 745 MiB
Duration : 1h 26mn
Overall bit rate : 1 202 Kbps
Writing application : VirtualDubMod 1.5.10.3 | www.virtualdub-fr.org || (build 2550/release)
Writing library : VirtualDubMod build 2550/release
Video
ID : 0
Format : MPEG-4 Visual
Format profile : Advanced Simple@L5
Format settings, BVOP : 1
Format settings, QPel : No
Format settings, GMC : No warppoints
Format settings, Matrix : Default (MPEG)
Codec ID : XVID
Codec ID/Hint : XviD
Duration : 1h 26mn
Bit rate : 1 065 Kbps
Width : 624 pixels
Height : 352 pixels
Display aspect ratio : 16:9
Frame rate : 25.000 fps
Color space : YUV
Chroma subsampling : 4:2:0
Bit depth : 8 bits
Scan type : Progressive
Compression mode : Lossy
Bits/(Pixel*Frame) : 0.194
Stream size : 659 MiB (89%)
Writing library : XviD 73
Audio
ID : 1
Format : MPEG Audio
Format version : Version 1
Format profile : Layer 3
Mode : Joint stereo
Codec ID : 55
Codec ID/Hint : MP3
Duration : 1h 26mn
Bit rate mode : Constant
Bit rate : 128 Kbps
Channel(s) : 2 channels
Sampling rate : 48.0 KHz
Compression mode : Lossy
Stream size : 79.3 MiB (11%)
Alignment : Aligned on interleaves
Interleave, duration : 40 ms (1.00 video frame)
Interleave, preload duratio : 504 ms
Writing library : LAME3.99r
Encoding settings : -m j -V 4 -q 2 -lowpass 17 -b 128

Рип от:



   Похожие торренты   Торрент   Размер 
В этой теме нет новых непрочитанных сообщений. Альпинисты (2013) HDTVRip-AVC от New-Team

95 | 20

1.46 ГБ

В этой теме нет новых непрочитанных сообщений. Альпинисты (2013) HDTVRip от New-Team

106 | 20

745.94 МБ

В этой теме нет новых непрочитанных сообщений. Альпинисты (2013) HDTVRip от New-Team

31 | 4

1.46 ГБ

В этой теме нет новых непрочитанных сообщений. Альпинисты (2013) HDTVRip 720p от MediaClub

188 | 14

2.43 ГБ

В этой теме нет новых непрочитанных сообщений. Альпинисты (2013) HDTV 1080i от MediaClub

80 | 12

5.24 ГБ

В этой теме нет новых непрочитанных сообщений. Жажда (2013) HDTVRip от Шкипер

76 | 3

745.64 МБ

В этой теме нет новых непрочитанных сообщений. Гость (2013) HDTVRip от Шкипер

93 | 12

745.21 МБ




Вы не можете начинать темы
Вы не можете отвечать на сообщения
Вы не можете редактировать свои сообщения
Вы не можете удалять свои сообщения
Вы не можете добавлять вложения

Перейти:  
Для Мосгорсуда, Роскомнадзора и рекламодателей: mosgorsud-torrent[собачка]yandex.ru
 Вход
ppkBB3cker v.2 © 2008-2014 @ PPK
[ Time : 0.041s | 16 Queries | GZIP : Off ]

Торрент трекер RUTOR.IN, Не можете зайти на rutor.org? Какой новый адрес рутор? Какое зеркало рутор? Не работает rutor.org и зеркала? Тогда наш торрент специально для вас. Rutor.in неофициальное зеркало rutor. В случае если у Вас заблокирован rutor или вдруг Вы не можете на него зайти, то Вы без труда сможете скачать бесплатно и без рекламы последние новинки кино, игр, сериалов и прочего у нас, на Rutor.in. Не нужно использовать прокси, чтобы зайти на рутор, достаточно воспользоваться нашим ресурсом. Все новые фильмы, игры, сериалы, книги и музыка за 2013 и 2014 годы через торрент бесплатно. Скачивайте фильмы в хорошем качестве, игры для пк, xbox, playstation без регистрации. У нас вы найдете новые Зарубежные сериалы и Русские сериалы 2013, 2014, 2015 годов. Оставайтесь с нами, качайте любимые фильмы, игры, сериалы, книги и музыку.
cron