img image001 image001 image001 image001 image001 image001 image001 image001 image001 image001 image001 image001 image001 image001 image001

Planets Sun Sun Sun
Статистика раздачи
Автор: Nickolas3434 | Размер: 1.46 ГБ | Добавлен: 15 апр 2015
Раздают: 15    Качают: 11
Скачать торрент
Скачать торрент
Описание торрента

СообщениеДобавлено: 15 апр 2015 

Страна: СССР
Производство: Студия Алма-Ата
Жанр: драма, биография, история
Год выпуска: 1944
Продолжительность: 2:56:24 (1:34:54 + 1:21:30)
Перевод: Не требуется
Cубтитры: нет
Оригинальная аудиодорожка: русский
Режиссер: Сергей Эйзенштейн
В ролях:
Николай Черкасов, Людмила Целиковская, Серафима Бирман, Павел Кадочников, Михаил Жаров, Амвросий Бучма, Михаил Кузнецов, Михаил Названов, Андрей Абрикосов, Александр Мгебров, Всеволод Пудовкин, Павел Массальский, Владимир Балашов, Эрик Пырьев, Георгий Вицин, Анель Судакевич...
Описание:
Историческая киноэпопея, ставшая одним из самых значительных событий мирового кино, повествует о борьбе Ивана Грозного за объединение феодальной Руси в мощное централизованное государство. В 1547 году семнадцатилетний московский князь Иван Васильевич взошел на царский престол, а через несколько лет одержал победу в Казанском походе. Ему предстояло пережить смерть первой, горячо любимой жены, измену друга, поражение в ливонской войне и боярский заговор. В борьбе за власть царь был беспощаден. Он стал великим самодержцем и получил прозвище "Грозный".





Источник: 2хDVD5 R5
Качество видео: DVDRip
Формат видео: AVI
Видео: 640x480 (4:3), 25 fps, XviD ~ 1046 kbps avg, 0.136 bit/pixel
Аудио: 48 kHz, MP3 2.0, 128 kbps
Раздача от:
Общее
Полное имя : Ivan.Groznyy.1944.DVDRip-1.46_[New-team]_by_AVP_Studio.avi
Формат : AVI
Формат/Информация : Audio Video Interleave
Размер файла : 804 Мбайт
Продолжительность : 1 ч. 34 м.
Общий поток : 1184 Кбит/сек
Программа кодирования : VirtualDubModRus 1.5.10.2 (build 2542/release)
Библиотека кодирования : VirtualDubMod build 2542/release
Видео
Идентификатор : 0
Формат : MPEG-4 Visual
Профиль формата : Advanced Simple@L5
Параметр BVOP формата : 1
Параметр QPel формата : Нет
Параметр GMC формата : Без точки перехода
Параметр матрицы формата : Выборочная
Идентификатор кодека : XVID
Идентификатор кодека/Подсказка : XviD
Продолжительность : 1 ч. 34 м.
Битрейт : 1046 Кбит/сек
Ширина : 640 пикселей
Высота : 480 пикселей
Соотношение сторон : 4:3
Частота кадров : 25,000 кадров/сек
Цветовое пространство : YUV
Субдискретизация насыщенности : 4:2:0
Битовая глубина : 8 бит
Тип развёртки : Прогрессивная
Метод сжатия : С потерями
Бит/(Пиксели*Кадры) : 0.136
Размер потока : 710 Мбайт (88%)
Библиотека кодирования : XviD 73
Аудио
Идентификатор : 1
Формат : MPEG Audio
Версия формата : Version 1
Профиль формата : Layer 3
Идентификатор кодека : 55
Идентификатор кодека/Подсказка : MP3
Продолжительность : 1 ч. 34 м.
Вид битрейта : Постоянный
Битрейт : 128 Кбит/сек
Каналы : 2 канала
Частота : 48,0 КГц
Метод сжатия : С потерями
Размер потока : 86,9 Мбайт (11%)
Выравнивание : Соединение по промежуткам
Продолжительность промежутка : 40 мс. (1,00 видеокадр)
Время предзагрузки промежутка : 504 мс.
Библиотека кодирования : LAME3.99r
Настройки программы : -m s -V 4 -q 2 -lowpass 17 -b 128





   Похожие торренты   Торрент   Размер 
В этой теме нет новых непрочитанных сообщений. Иван Грозный (1944) DVDRip-AVC от New-Team

97 | 11

2.18 ГБ

В этой теме нет новых непрочитанных сообщений. Иван Грозный (1944) DVDRip от New-Team

45 | 3

2.18 ГБ

В этой теме нет новых непрочитанных сообщений. Иван Грозный (1944-1945) DVDRip

385 | 24

2.85 ГБ

В этой теме нет новых непрочитанных сообщений. Иван Грозный (1944-1945) DVDRip-AVC от ExKinoRay

48 | 3

3.47 ГБ

В этой теме нет новых непрочитанных сообщений. Иван Никулин - русский матрос (1944) DVDRip-AVC от New-Team

22 | 4

1.09 ГБ

В этой теме нет новых непрочитанных сообщений. Иван Никулин - русский матрос (1944) DVDRip от New-Team

4 | 13

744.26 МБ

В этой теме нет новых непрочитанных сообщений. Иван Никулин - русский матрос (1944) DVDRip от New-Team

11 | 6

1.09 ГБ




Вы не можете начинать темы
Вы не можете отвечать на сообщения
Вы не можете редактировать свои сообщения
Вы не можете удалять свои сообщения
Вы не можете добавлять вложения

Перейти:  
Для Мосгорсуда, Роскомнадзора и рекламодателей: mosgorsud-torrent[собачка]yandex.ru
 Вход
ppkBB3cker v.2 © 2008-2014 @ PPK
[ Time : 0.059s | 17 Queries | GZIP : Off ]

Торрент трекер RUTOR.IN, Не можете зайти на rutor.org? Какой новый адрес рутор? Какое зеркало рутор? Не работает rutor.org и зеркала? Тогда наш торрент специально для вас. Rutor.in неофициальное зеркало rutor. В случае если у Вас заблокирован rutor или вдруг Вы не можете на него зайти, то Вы без труда сможете скачать бесплатно и без рекламы последние новинки кино, игр, сериалов и прочего у нас, на Rutor.in. Не нужно использовать прокси, чтобы зайти на рутор, достаточно воспользоваться нашим ресурсом. Все новые фильмы, игры, сериалы, книги и музыка за 2013 и 2014 годы через торрент бесплатно. Скачивайте фильмы в хорошем качестве, игры для пк, xbox, playstation без регистрации. У нас вы найдете новые Зарубежные сериалы и Русские сериалы 2013, 2014, 2015 годов. Оставайтесь с нами, качайте любимые фильмы, игры, сериалы, книги и музыку.