img image001 image001 image001 image001 image001 image001 image001 image001 image001 image001 image001 image001 image001 image001 image001

Planets Sun Sun Sun
Статистика раздачи
Автор: Nickolas3434 | Размер: 1.78 ГБ | Добавлен: 14 апр 2015
Раздают: 187    Качают: 18
Скачать торрент
Скачать торрент
Описание торрента

СообщениеДобавлено: 14 апр 2015 


Информация о фильме
Оригинальное название: 12 месяцев. Новая сказка
Год выпуска: 2015
Жанр: Фэнтези, сказка
Выпущено: Россия, Никола Фильм
Режиссер: Денис Елеонский
В ролях: Ольга Налётова, Илья Бутковский, Евгений Воскресенский, Юлия Такшина, Марина Иванова, Денис Ясик, Антон Юрьев, Анастасия Мельникова, Дмитрий Гогу, Богдан Ступка, Сергей Друзьяк, Владимир Кристовский, Андрей Федорцов, Юрий Гальцев, Андрей Леонов, Иван Кокорин
О фильме: Лиза — обычная девочка, которая, несмотря на юный возраст, уже давно не верит в сказки. В канун Нового Года она отправляется вместе с родителями в роскошный замок, чтобы там встретить долгожданный праздник. Однако, совершенно невероятным образом, девочка попадает в настоящую сказку, где ее ждет множество незабываемых приключений. Лиза знакомится с самыми различными сказочными существами, а также узнает страшную новость о том, что злой королевский советник решил отменить Новый Год. Спасти праздник можно только одним способом: принести во дворец корзину подснежников. Среди зимы Лиза отправляется в лес, чтобы отыскать весенние цветы, а также найти способ вернуться к родителям...

Файл
Качество: WEB-DLRip (AVC)
Видео: MPEG-4 AVC, 2650 Кбит/с, 1024x456, 25 кадр/с
Аудио: АС3, 6 ch, 384 Кбит/с
Размер: 1.78 ГБ
Продолжительность: 01:24:01
Язык: Русский
Озвучивание - Дублированное (iTunes Russia)
Сохранены оригинальные чаптеры как на исходном WEB-DL.
x264 [info]: frame I:1060 Avg QP:15.66 size: 85926
x264 [info]: frame P:34164 Avg QP:18.86 size: 25899
x264 [info]: frame B:90808 Avg QP:20.82 size: 7628
x264 [info]: consecutive B-frames: 3.0% 5.8% 7.5% 66.5% 5.9% 7.7% 1.1% 1.1% 0.3% 1.1%
x264 [info]: mb I I16..4: 8.4% 57.4% 34.2%
x264 [info]: mb P I16..4: 0.6% 10.9% 2.2% P16..4: 28.3% 32.0% 12.4% 5.2% 0.8% skip: 7.6%
x264 [info]: mb B I16..4: 0.1% 1.6% 0.3% B16..8: 26.8% 20.1% 4.3% direct: 6.7% skip:40.1% L0:34.4% L1:43.3% BI:22.3%
x264 [info]: 8x8 transform intra:76.6% inter:45.9%
x264 [info]: direct mvs spatial:97.0% temporal:3.0%
x264 [info]: coded y,uvDC,uvAC intra: 91.5% 92.9% 78.6% inter: 24.6% 21.7% 12.0%
x264 [info]: i16 v,h,dc,p: 26% 7% 9% 58%
x264 [info]: i8 v,h,dc,ddl,ddr,vr,hd,vl,hu: 17% 9% 7% 8% 11% 12% 11% 13% 13%
x264 [info]: i4 v,h,dc,ddl,ddr,vr,hd,vl,hu: 19% 8% 5% 8% 13% 14% 12% 11% 11%
x264 [info]: i8c dc,h,v,p: 40% 19% 22% 19%
x264 [info]: Weighted P-Frames: Y:6.3% UV:4.0%
x264 [info]: ref P L0: 55.1% 12.6% 15.8% 5.0% 3.8% 2.5% 2.3% 1.3% 1.3% 0.2% 0.0%
x264 [info]: ref B L0: 82.8% 8.8% 3.7% 1.8% 1.2% 0.9% 0.6% 0.3%
x264 [info]: ref B L1: 95.7% 4.3%
x264 [info]: kb/s:2647.88

Общее
Уникальный идентификатор : 180237120817357313452422707379821121261 (0x8798682484BFADB9BCFF7D51FD5C8EED)
Полное имя : D:Загрузки12.Mesjacev.Novaja.Skazka.2015.x264.WEB-DLRip.(AVC).ExKinoRay.mkv
Формат : Matroska
Версия формата : Version 2
Размер файла : 1,78 Гбайт
Продолжительность : 1 ч. 24 м.
Общий поток : 3034 Кбит/сек
Название фильма : 12 месяцев: Новая сказка.2015.Rip by: ollan
Дата кодирования : UTC 2015-04-14 06:30:34
Программа кодирования : mkvmerge v5.6.0 ('Kenya Kane') built on May 27 2012 16:44:04
Библиотека кодирования : libebml v1.2.3 + libmatroska v1.3.0
Видео
Идентификатор : 1
Формат : AVC
Формат/Информация : Advanced Video Codec
Профиль формата : High@L4.1
Параметр CABAC формата : Да
Параметр ReFrames формата : 9 кадров
Идентификатор кодека : V_MPEG4/ISO/AVC
Продолжительность : 1 ч. 24 м.
Битрейт : 2650 Кбит/сек
Ширина : 1024 пикселя
Высота : 456 пикселей
Соотношение сторон : 2,25:1
Режим частоты кадров : Постоянный
Частота кадров : 25,000 кадров/сек
Цветовое пространство : YUV
Субдискретизация насыщенности : 4:2:0
Битовая глубина : 8 бит
Тип развёртки : Прогрессивная
Бит/(Пиксели*Кадры) : 0.227
Размер потока : 1,52 Гбайт (85%)
Библиотека кодирования : x264 core 125 r2200 999b753
Настройки программы : cabac=1 / ref=9 / deblock=1:-2:-2 / analyse=0x3:0x133 / me=umh / subme=11 / psy=1 / psy_rd=1.00:0.10 / mixed_ref=1 / me_range=32 / chroma_me=1 / trellis=2 / 8x8dct=1 / cqm=0 / deadzone=21,11 / fast_pskip=0 / chroma_qp_offset=-3 / threads=12 / lookahead_threads=2 / sliced_threads=0 / nr=0 / decimate=0 / interlaced=0 / bluray_compat=0 / constrained_intra=0 / bframes=9 / b_pyramid=2 / b_adapt=2 / b_bias=0 / direct=3 / weightb=1 / open_gop=0 / weightp=2 / keyint=250 / keyint_min=25 / scenecut=40 / intra_refresh=0 / rc=2pass / mbtree=0 / bitrate=2650 / ratetol=1.0 / qcomp=0.60 / qpmin=0 / qpmax=69 / qpstep=4 / cplxblur=20.0 / qblur=0.5 / ip_ratio=1.40 / pb_ratio=1.30 / aq=1:1.00
Язык : Russian
Default : Да
Forced : Нет
Аудио
Идентификатор : 2
Формат : AC-3
Формат/Информация : Audio Coding 3
Расширение режима : CM (complete main)
Параметр Endianness формата : Big
Идентификатор кодека : A_AC3
Продолжительность : 1 ч. 24 м.
Вид битрейта : Постоянный
Битрейт : 384 Кбит/сек
Каналы : 6 каналов
Расположение каналов : Front: L C R, Side: L R, LFE
Частота : 48,0 КГц
Битовая глубина : 16 бит
Метод сжатия : С потерями
Размер потока : 231 Мбайт (13%)
Язык : Russian
Default : Да
Forced : Нет
Меню
00:00:00.000 : ru:Chapter 01
00:05:25.000 : ru:Chapter 02
00:10:09.000 : ru:Chapter 03
00:16:15.000 : ru:Chapter 04
00:22:40.000 : ru:Chapter 05
00:27:49.000 : ru:Chapter 06
00:33:15.000 : ru:Chapter 07
00:38:57.000 : ru:Chapter 08
00:44:23.000 : ru:Chapter 09
00:49:47.000 : ru:Chapter 10
00:55:37.000 : ru:Chapter 11
01:01:01.000 : ru:Chapter 12
01:05:23.000 : ru:Chapter 13
01:09:59.000 : ru:Chapter 14
01:15:07.000 : ru:Chapter 15
01:19:07.000 : ru:Chapter 16





Релиз от: Rip by:



   Похожие торренты   Торрент   Размер 
В этой теме нет новых непрочитанных сообщений. 12 месяцев: Новая сказка (2015) WEB-DLRip-AVC | iTunes

221 | 14

1.45 ГБ

В этой теме нет новых непрочитанных сообщений. 12 месяцев: Новая сказка (2015) WEB-DL 720p | iTunes

141 | 12

2.61 ГБ

В этой теме нет новых непрочитанных сообщений. 12 месяцев: Новая сказка (2015) WEB-DL 1080p | iTunes

321 | 12

3.43 ГБ

В этой теме нет новых непрочитанных сообщений. Бармен (2015) WEB-DLRip-AVC от ExKinoRay | iTunes Russia

808 | 22

1.71 ГБ

В этой теме нет новых непрочитанных сообщений. Училка (2015) WEB-DLRip-AVC от ExKinoRay | iTunes Russia

23 | 0

2.14 ГБ

В этой теме нет новых непрочитанных сообщений. Богатырша (2015) WEB-DLRip-AVC от ExKinoRay | iTunes Russia

1946 | 114

745.35 МБ

В этой теме нет новых непрочитанных сообщений. Богатырша (2015) WEB-DLRip-AVC от ExKinoRay | iTunes Russia

1860 | 116

1.65 ГБ




Вы не можете начинать темы
Вы не можете отвечать на сообщения
Вы не можете редактировать свои сообщения
Вы не можете удалять свои сообщения
Вы не можете добавлять вложения

Перейти:  
Для Мосгорсуда, Роскомнадзора и рекламодателей: mosgorsud-torrent[собачка]yandex.ru
 Вход
ppkBB3cker v.2 © 2008-2014 @ PPK
[ Time : 0.035s | 15 Queries | GZIP : Off ]

cron