img image001 image001 image001 image001 image001 image001 image001 image001 image001 image001 image001 image001 image001 image001 image001

Planets Sun Sun Sun
Статистика раздачи
Автор: Nickolas3434 | Размер: 745.18 МБ | Добавлен: 15 апр 2015
Раздают: 17    Качают: 44
Скачать торрент
Скачать торрент
Описание торрента

СообщениеДобавлено: 15 апр 2015 

Страна: СССР
Производство: Мосфильм
Жанр: драма
Год выпуска: 1944
Продолжительность: 01:29:14
Перевод: Не требуется
Cубтитры: нет
Оригинальная аудиодорожка: русский
Режиссер: Борис Бабочкин, Анатолий Босулаев
В ролях:
Борис Бабочкин, Василий Ванин, Николай Сергеев, Ольга Викландт, Нина Никитина, Анастасия Зуева, Елизавета Кузюрина, Нина Зорская, Владимир Балихин, М. Томкевич, Виктор Кольцов (Кутаков), Марина (Мария) Гаврилко, Мария Виноградова, Виктор Ключарев, Анатолий Елисеев, Мария Волкова, Владимир Колчин, Анна Кожевникова, Вера Орлова, Алексей Темерин, Зоя Толбузина (Земнухова), Владимир Уральский, Галина Фролова, Н. Карпов, Александр Лукьянов, А. Скворцова, Елена Тяпкина...
Описание:
Сказ о трудовом и героическом подвиге русского народа в годы Великой Отечественной войны. Ноябрь 1941 года. Один за другим уходят мужчины, в деревне Быковка остаются лишь старики, женщины и дети. Председатель колхоза Иван Выборнов тоже рвется на фронт, но, подчиняясь партийной дисциплине, остается в деревне и продолжает умело руководить колхозом, мобилизуя односельчан на отправку хлеба для фронта и голодающих городов.
Первая режиссерская работа известного актера Бориса Бабочкина и театрального художника Анатолия Босулаева.





Источник: DVB
Качество видео: SATRip
Формат видео: AVI
Видео: 608x448 (1,357:1), 25 fps, XviD ~ 1030 kbps avg, 0.151 bit/pixel
Аудио: 48 kHz, MP3 2.0, 128 kbps
Раздача от:
Общее
Полное имя : Rodnye.polya.1944.DVDRip-745_[New-team]_by_AVP_Studio.avi
Формат : AVI
Формат/Информация : Audio Video Interleave
Размер файла : 745 Мбайт
Продолжительность : 1 ч. 29 м.
Общий поток : 1168 Кбит/сек
Программа кодирования : VirtualDubModRus 1.5.10.2 (build 2542/release)
Библиотека кодирования : VirtualDubMod build 2542/release
Видео
Идентификатор : 0
Формат : MPEG-4 Visual
Профиль формата : Advanced Simple@L5
Параметр BVOP формата : 1
Параметр QPel формата : Нет
Параметр GMC формата : Без точки перехода
Параметр матрицы формата : Выборочная
Идентификатор кодека : XVID
Идентификатор кодека/Подсказка : XviD
Продолжительность : 1 ч. 29 м.
Битрейт : 1030 Кбит/сек
Ширина : 608 пикселей
Высота : 448 пикселей
Соотношение сторон : 4:3
Частота кадров : 25,000 кадров/сек
Цветовое пространство : YUV
Субдискретизация насыщенности : 4:2:0
Битовая глубина : 8 бит
Тип развёртки : Прогрессивная
Метод сжатия : С потерями
Бит/(Пиксели*Кадры) : 0.151
Размер потока : 657 Мбайт (88%)
Библиотека кодирования : XviD 73
Аудио
Идентификатор : 1
Формат : MPEG Audio
Версия формата : Version 1
Профиль формата : Layer 3
Идентификатор кодека : 55
Идентификатор кодека/Подсказка : MP3
Продолжительность : 1 ч. 29 м.
Вид битрейта : Постоянный
Битрейт : 128 Кбит/сек
Каналы : 2 канала
Частота : 48,0 КГц
Метод сжатия : С потерями
Размер потока : 81,7 Мбайт (11%)
Выравнивание : Соединение по промежуткам
Продолжительность промежутка : 40 мс. (1,00 видеокадр)
Время предзагрузки промежутка : 504 мс.
Библиотека кодирования : LAME3.99r
Настройки программы : -m s -V 4 -q 2 -lowpass 17 -b 128





   Похожие торренты   Торрент   Размер 
В этой теме нет новых непрочитанных сообщений. Родные поля (1944) SATRip от New-Team

7 | 13

1.09 ГБ

В этой теме нет новых непрочитанных сообщений. Родные поля (1944) SATRip-AVC от New-Team

27 | 5

1.09 ГБ

В этой теме нет новых непрочитанных сообщений. 1944 / 1944 (2015) BDRip-AVC от New-Team | Лицензия

184 | 20

2.18 ГБ

В этой теме нет новых непрочитанных сообщений. 1944 / 1944 (2015) BDRip-AVC от New-Team | Лицензия

1595 | 183

1.46 ГБ

В этой теме нет новых непрочитанных сообщений. Родные берега (1943) DVDRip от New-Team

44 | 6

745.94 МБ

В этой теме нет новых непрочитанных сообщений. Родные берега (1943) DVDRip-AVC от New-Team

53 | 11

745.25 МБ

В этой теме нет новых непрочитанных сообщений. Сильва (1944) SATRip от New-Team

6 | 7

1.09 ГБ




Вы не можете начинать темы
Вы не можете отвечать на сообщения
Вы не можете редактировать свои сообщения
Вы не можете удалять свои сообщения
Вы не можете добавлять вложения

Перейти:  
Для Мосгорсуда, Роскомнадзора и рекламодателей: mosgorsud-torrent[собачка]yandex.ru
 Вход
ppkBB3cker v.2 © 2008-2014 @ PPK
[ Time : 0.796s | 16 Queries | GZIP : Off ]

Торрент трекер RUTOR.IN, Не можете зайти на rutor.org? Какой новый адрес рутор? Какое зеркало рутор? Не работает rutor.org и зеркала? Тогда наш торрент специально для вас. Rutor.in неофициальное зеркало rutor. В случае если у Вас заблокирован rutor или вдруг Вы не можете на него зайти, то Вы без труда сможете скачать бесплатно и без рекламы последние новинки кино, игр, сериалов и прочего у нас, на Rutor.in. Не нужно использовать прокси, чтобы зайти на рутор, достаточно воспользоваться нашим ресурсом. Все новые фильмы, игры, сериалы, книги и музыка за 2013 и 2014 годы через торрент бесплатно. Скачивайте фильмы в хорошем качестве, игры для пк, xbox, playstation без регистрации. У нас вы найдете новые Зарубежные сериалы и Русские сериалы 2013, 2014, 2015 годов. Оставайтесь с нами, качайте любимые фильмы, игры, сериалы, книги и музыку.
cron