img image001 image001 image001 image001 image001 image001 image001 image001 image001 image001 image001 image001 image001 image001 image001

Planets Sun Sun Sun
Статистика раздачи
Автор: Nickolas3434 | Размер: 744.8 МБ | Добавлен: 17 апр 2015
Раздают: 8    Качают: 6
Скачать торрент
Скачать торрент
Описание торрента

СообщениеДобавлено: 17 апр 2015 

Страна: СССР
Производство: Мосфильм
Жанр: драма, военный
Год выпуска: 1944
Продолжительность: 01:20:48
Перевод: Не требуется
Cубтитры: нет
Оригинальная аудиодорожка: русский
Режиссер: Юлий Райзман
В ролях:
Петр Алейников, Нина Мазаева, Николай Боголюбов, Петр Соболевский, Евгений Немченко, Иван Кузнецов, Николай Шамин, Александра Сальникова, Алексей Алексеев, Е.Каплунова, Е.Григорьев, И.Степанов...
Описание:
По одноименной пьесе Георгия Мдивани.
Картина Юлия Райзмана «Небо Москвы», снятая в в 1944 году, рассказывает не столько о Москве, сколько о небе — о воздушном пространстве над великой Столицей, которое осенью 41-го доблестно защищают советские военные истребители. Сегодня картина производит впечатление своего рода кинематографического раритета: во-первых, потому что ее довольно редко показывают по телевизору, а во-вторых, в силу непривычного и, в общем, нехарактерного для нашего кино «формализма» с каким разрешается здесь героическая коллизия. Во всех классических военных фильмах о летчиках: от «Воздушного извозчика» до «В бой идут одни старики» — мы, как правило, имеем дело с полноценной лирико-драматической или комедийно-водевильной интригой, обильно, к тому же, сдобренной музыкальными номерами: бесстрашные «боги войны» большую часть экранного времени страдают от любовной неразберихи и внутренних сомнений, ухаживают, выясняют отношения, дарят букеты, поют и пляшут, и лишь в кульминационные моменты поднимаются в небо, чтобы совершать подвиги.





Источник: DVD5 R5
Качество видео: DVDRip
Формат видео: AVI
Видео: 640x480 (4:3), 25 fps, XviD ~ 1151 kbps avg, 0.150 bit/pixel
Аудио: 48 kHz, MP3 2.0, 128 kbps
Раздача от:
Общее
Полное имя : Nebo.Moskvy.1944.DVDRip-745_[New-team]_by_AVP_Studio.avi
Формат : AVI
Формат/Информация : Audio Video Interleave
Размер файла : 745 Мбайт
Продолжительность : 1 ч. 20 м.
Общий поток : 1289 Кбит/сек
Программа кодирования : VirtualDubModRus 1.5.10.2 (build 2542/release)
Библиотека кодирования : VirtualDubMod build 2542/release
Видео
Идентификатор : 0
Формат : MPEG-4 Visual
Профиль формата : Advanced Simple@L5
Параметр BVOP формата : 1
Параметр QPel формата : Нет
Параметр GMC формата : Без точки перехода
Параметр матрицы формата : Выборочная
Идентификатор кодека : XVID
Идентификатор кодека/Подсказка : XviD
Продолжительность : 1 ч. 20 м.
Битрейт : 1151 Кбит/сек
Ширина : 640 пикселей
Высота : 480 пикселей
Соотношение сторон : 4:3
Частота кадров : 25,000 кадров/сек
Цветовое пространство : YUV
Субдискретизация насыщенности : 4:2:0
Битовая глубина : 8 бит
Тип развёртки : Прогрессивная
Метод сжатия : С потерями
Бит/(Пиксели*Кадры) : 0.150
Размер потока : 665 Мбайт (89%)
Библиотека кодирования : XviD 73
Аудио
Идентификатор : 1
Формат : MPEG Audio
Версия формата : Version 1
Профиль формата : Layer 3
Идентификатор кодека : 55
Идентификатор кодека/Подсказка : MP3
Продолжительность : 1 ч. 20 м.
Вид битрейта : Постоянный
Битрейт : 128 Кбит/сек
Каналы : 2 канала
Частота : 48,0 КГц
Метод сжатия : С потерями
Размер потока : 74,0 Мбайт (10%)
Выравнивание : Соединение по промежуткам
Продолжительность промежутка : 40 мс. (1,00 видеокадр)
Время предзагрузки промежутка : 504 мс.
Библиотека кодирования : LAME3.99r
Настройки программы : -m s -V 4 -q 2 -lowpass 17 -b 128





   Похожие торренты   Торрент   Размер 
В этой теме нет новых непрочитанных сообщений. Небо Москвы (1944) DVDRip-AVC от New-Team

160 | 9

1.09 ГБ

В этой теме нет новых непрочитанных сообщений. Небо Москвы (1944) DVDRip от New-Team

7 | 5

1.09 ГБ

В этой теме нет новых непрочитанных сообщений. Небо Москвы (1944) DVDRip от Alekxandr48

2 | 2

700.81 МБ

В этой теме нет новых непрочитанных сообщений. Небо Москвы (1944) DVDRip от KinoBit

5 | 3

1.28 ГБ

В этой теме нет новых непрочитанных сообщений. Небо Москвы (1944) TVRip

0 | 5

694.61 МБ

В этой теме нет новых непрочитанных сообщений. 1944 / 1944 (2015) BDRip-AVC от New-Team | Лицензия

1595 | 183

1.46 ГБ

В этой теме нет новых непрочитанных сообщений. 1944 / 1944 (2015) BDRip-AVC от New-Team | Лицензия

184 | 20

2.18 ГБ




Вы не можете начинать темы
Вы не можете отвечать на сообщения
Вы не можете редактировать свои сообщения
Вы не можете удалять свои сообщения
Вы не можете добавлять вложения

Перейти:  
Для Мосгорсуда, Роскомнадзора и рекламодателей: mosgorsud-torrent[собачка]yandex.ru
 Вход
ppkBB3cker v.2 © 2008-2014 @ PPK
[ Time : 0.041s | 16 Queries | GZIP : Off ]

Торрент трекер RUTOR.IN, Не можете зайти на rutor.org? Какой новый адрес рутор? Какое зеркало рутор? Не работает rutor.org и зеркала? Тогда наш торрент специально для вас. Rutor.in неофициальное зеркало rutor. В случае если у Вас заблокирован rutor или вдруг Вы не можете на него зайти, то Вы без труда сможете скачать бесплатно и без рекламы последние новинки кино, игр, сериалов и прочего у нас, на Rutor.in. Не нужно использовать прокси, чтобы зайти на рутор, достаточно воспользоваться нашим ресурсом. Все новые фильмы, игры, сериалы, книги и музыка за 2013 и 2014 годы через торрент бесплатно. Скачивайте фильмы в хорошем качестве, игры для пк, xbox, playstation без регистрации. У нас вы найдете новые Зарубежные сериалы и Русские сериалы 2013, 2014, 2015 годов. Оставайтесь с нами, качайте любимые фильмы, игры, сериалы, книги и музыку.
cron