img image001 image001 image001 image001 image001 image001 image001 image001 image001 image001 image001 image001 image001 image001 image001

Planets Sun Sun Sun
Статистика раздачи
Автор: Nickolas3434 | Размер: 1.09 ГБ | Добавлен: 16 апр 2015
Раздают: 152    Качают: 7
Скачать торрент
Скачать торрент
Описание торрента

СообщениеДобавлено: 16 апр 2015 

Страна: СССР
Производство: Мосфильм
Жанр: драма, военный
Год выпуска: 1944
Продолжительность: 01:20:48
Перевод: Не требуется
Cубтитры: нет
Оригинальная аудиодорожка: русский
Режиссер: Юлий Райзман
В ролях:
Петр Алейников, Нина Мазаева, Николай Боголюбов, Петр Соболевский, Евгений Немченко, Иван Кузнецов, Николай Шамин, Александра Сальникова, Алексей Алексеев, Е.Каплунова, Е.Григорьев, И.Степанов...
Описание:
По одноименной пьесе Георгия Мдивани.
Картина Юлия Райзмана «Небо Москвы», снятая в в 1944 году, рассказывает не столько о Москве, сколько о небе — о воздушном пространстве над великой Столицей, которое осенью 41-го доблестно защищают советские военные истребители. Сегодня картина производит впечатление своего рода кинематографического раритета: во-первых, потому что ее довольно редко показывают по телевизору, а во-вторых, в силу непривычного и, в общем, нехарактерного для нашего кино «формализма» с каким разрешается здесь героическая коллизия. Во всех классических военных фильмах о летчиках: от «Воздушного извозчика» до «В бой идут одни старики» — мы, как правило, имеем дело с полноценной лирико-драматической или комедийно-водевильной интригой, обильно, к тому же, сдобренной музыкальными номерами: бесстрашные «боги войны» большую часть экранного времени страдают от любовной неразберихи и внутренних сомнений, ухаживают, выясняют отношения, дарят букеты, поют и пляшут, и лишь в кульминационные моменты поднимаются в небо, чтобы совершать подвиги.





Источник: DVD5 R5
Качество видео: DVDRip-AVC
Формат видео: MKV
Видео: 688->758x568 (4:3), 25 fps, H264 ~ 1543 kbps avg, 0.158 bit/pixel
Аудио: 48 kHz, Dolby Digital AC3 2.0, 192 kbps Русский
Аудио: 48 kHz, Dolby Digital AC3 2.0, 192 kbps Чешский
Раздача от:
Общее
Полное имя : Nebo.Moskvy.1944.DVDRip-AVC_[New-team]_by_AVP_Studio.mkv
Формат : Matroska
Версия формата : Version 4 / Version 2
Размер файла : 1,09 Гбайт
Продолжительность : 1 ч. 20 м.
Общий поток : 1929 Кбит/сек
Название фильма : Nebo.Moskvy.1944.DVDRip-AVC_[New-team]_by_AVP_Studio
Дата кодирования : UTC 2015-04-16 10:06:39
Программа кодирования : mkvmerge v7.8.0 ('River Man') 64bit built on Mar 27 2015 16:31:37
Библиотека кодирования : libebml v1.3.1 + libmatroska v1.4.2
DURATION : 01:20:47.968000000
NUMBER_OF_FRAMES : 151499
NUMBER_OF_BYTES : 116351232
_STATISTICS_WRITING_APP : mkvmerge v7.8.0 ('River Man') 64bit built on Mar 27 2015 16:31:37
_STATISTICS_WRITING_DATE_UTC : 2015-04-16 10:06:39
_STATISTICS_TAGS : BPS DURATION NUMBER_OF_FRAMES NUMBER_OF_BYTES
Видео
Идентификатор : 1
Формат : AVC
Формат/Информация : Advanced Video Codec
Профиль формата : High@L4.1
Параметр CABAC формата : Да
Параметр ReFrames формата : 8 кадров
Идентификатор кодека : V_MPEG4/ISO/AVC
Продолжительность : 1 ч. 20 м.
Битрейт : 1543 Кбит/сек
Ширина : 688 пикселей
Высота : 568 пикселей
Соотношение сторон : 4:3
Режим частоты кадров : Постоянный
Частота кадров : 25,000 кадров/сек
Цветовое пространство : YUV
Субдискретизация насыщенности : 4:2:0
Битовая глубина : 8 бит
Тип развёртки : Прогрессивная
Бит/(Пиксели*Кадры) : 0.158
Размер потока : 871 Мбайт (78%)
Заголовок : Источник DVD
Библиотека кодирования : x264 core 138 r2356 a1d3d17
Настройки программы : cabac=1 / ref=8 / deblock=1:-2:-1 / analyse=0x3:0x113 / me=umh / subme=10 / psy=1 / psy_rd=1.00:0.05 / mixed_ref=1 / me_range=32 / chroma_me=1 / trellis=2 / 8x8dct=1 / cqm=0 / deadzone=21,11 / fast_pskip=0 / chroma_qp_offset=-3 / threads=6 / lookahead_threads=1 / sliced_threads=0 / nr=0 / decimate=0 / interlaced=0 / bluray_compat=0 / constrained_intra=0 / bframes=8 / b_pyramid=2 / b_adapt=2 / b_bias=0 / direct=3 / weightb=1 / open_gop=0 / weightp=2 / keyint=250 / keyint_min=25 / scenecut=40 / intra_refresh=0 / rc=2pass / mbtree=0 / bitrate=1543 / ratetol=1.0 / qcomp=0.60 / qpmin=0 / qpmax=69 / qpstep=4 / cplxblur=20.0 / qblur=0.5 / ip_ratio=1.40 / pb_ratio=1.30 / aq=1:1.00
Язык : Russian
Default : Да
Forced : Нет
Аудио #1
Идентификатор : 2
Формат : AC-3
Формат/Информация : Audio Coding 3
Расширение режима : CM (complete main)
Параметр Endianness формата : Big
Идентификатор кодека : A_AC3
Продолжительность : 1 ч. 20 м.
Вид битрейта : Постоянный
Битрейт : 192 Кбит/сек
Каналы : 2 канала
Расположение каналов : Front: L R
Частота : 48,0 КГц
Битовая глубина : 16 бит
Метод сжатия : С потерями
Размер потока : 111 Мбайт (10%)
Заголовок : Источник DVD Dolby Digital 2,0 192 kbps
Язык : Russian
Default : Да
Forced : Нет
Аудио #2
Идентификатор : 3
Формат : AC-3
Формат/Информация : Audio Coding 3
Профиль формата : Dolby Digital
Расширение режима : CM (complete main)
Параметр Endianness формата : Big
Идентификатор кодека : A_AC3
Продолжительность : 1 ч. 20 м.
Вид битрейта : Постоянный
Битрейт : 192 Кбит/сек
Каналы : 2 канала
Расположение каналов : Front: L R
Частота : 48,0 КГц
Битовая глубина : 16 бит
Метод сжатия : С потерями
Размер потока : 111 Мбайт (10%)
Заголовок : Источник DVD Dolby Digital 2,0 192 kbps
Язык : Czech
Default : Нет
Forced : Нет
Меню
00:00:00.000 : ru:00:00:00.000000000
00:05:00.000 : :00:05:00.000000000
00:10:00.000 : :00:10:00.000000000
00:15:00.000 : :00:15:00.000000000
00:20:00.000 : :00:20:00.000000000
00:25:00.000 : :00:25:00.000000000
00:30:00.000 : :00:30:00.000000000
00:35:00.000 : :00:35:00.000000000
00:40:00.000 : :00:40:00.000000000
00:45:00.000 : :00:45:00.000000000
00:50:00.000 : :00:50:00.000000000
00:55:00.000 : :00:55:00.000000000
01:00:00.000 : :01:00:00.000000000
01:05:00.000 : :01:05:00.000000000
01:10:00.000 : :01:10:00.000000000
01:15:00.000 : :01:15:00.000000000





   Похожие торренты   Торрент   Размер 
В этой теме нет новых непрочитанных сообщений. Небо Москвы (1944) DVDRip от New-Team

8 | 6

744.8 МБ

В этой теме нет новых непрочитанных сообщений. Небо Москвы (1944) DVDRip от New-Team

6 | 3

1.09 ГБ

В этой теме нет новых непрочитанных сообщений. Небо Москвы (1944) DVDRip от KinoBit

5 | 3

1.28 ГБ

В этой теме нет новых непрочитанных сообщений. Небо Москвы (1944) DVDRip от Alekxandr48

2 | 2

700.81 МБ

В этой теме нет новых непрочитанных сообщений. Небо Москвы (1944) TVRip

0 | 5

694.61 МБ

В этой теме нет новых непрочитанных сообщений. 1944 / 1944 (2015) BDRip-AVC от New-Team | Лицензия

146 | 14

2.18 ГБ

В этой теме нет новых непрочитанных сообщений. 1944 / 1944 (2015) BDRip-AVC от New-Team | Лицензия

1486 | 170

1.46 ГБ




Вы не можете начинать темы
Вы не можете отвечать на сообщения
Вы не можете редактировать свои сообщения
Вы не можете удалять свои сообщения
Вы не можете добавлять вложения

Перейти:  
Для Мосгорсуда, Роскомнадзора и рекламодателей: mosgorsud-torrent[собачка]yandex.ru
 Вход
ppkBB3cker v.2 © 2008-2014 @ PPK
[ Time : 0.325s | 16 Queries | GZIP : Off ]

cron