img image001 image001 image001 image001 image001 image001 image001 image001 image001 image001 image001 image001 image001 image001 image001

Planets Sun Sun Sun
Статистика раздачи
Автор: Nickolas3434 | Размер: 1.74 ГБ | Добавлен: 18 апр 2015
Раздают: 3215    Качают: 76
Скачать торрент
Скачать торрент
Описание торрента

СообщениеДобавлено: 18 апр 2015 

Информация о фильме
Название: Призрак
Год выхода: 2015
Жанр: комедия, семейный
Режиссер: Александр Войтинский
В ролях: Фёдор Бондарчук, Семен Трескунов, Ян Цапник, Анна Антонова, Игорь Угольников, Ксения Лаврова-Глинка, Софья Райзман, Ани Петросян, Алексей Лукин, Ольга Кузьмина
О фильме: Еще вчера Юрий Гордеев — амбициозный авиаконструктор и любимец женщин — был в шаге от своего триумфа. Его самолет ЮГ-1 должен был стать настоящим прорывом в отечественной авиации. Но сегодня его никто не видит и не слышит, и конкурент по бизнесу беспрепятственно закрывает его компанию. Все потому, что Юра разбился в автокатастрофе и стал призраком.
Семиклассник Ваня Кузнецов был пустым местом всегда. Жертва гиперопеки матери, объект насмешек одноклассников, он боится даже заговорить с девочкой, в которую давно влюблен. У Юры есть неделя, чтобы закончить дело своей жизни и поднять самолет в воздух. Ваня — единственный, кто его видит и может ему помочь.


Выпущено: Россия
Продолжительность: 01:53:44
Озвучивание: Оригинальное [iTunes]
Файл
Качество: WEB-DLRip (AVC)
Видео: MPEG-4 AVC, 1811 Кбит/с, 1024x426
Аудио: AC3, 6 ch, 384 Кбит/с
General
Unique ID : 182312516843027103483356475630382892181 (0x89281D111E5B55ADB18F8F9CCF1A4495)
Complete name : C:Prizrak.2015.O.WEB-DLRip.AVC.ExKinoRay.mkv
Format : Matroska
Format version : Version 4 / Version 2
File size : 1.74 GiB
Duration : 1h 53mn
Overall bit rate : 2 196 Kbps
Movie name : Prizrak 2015 from ExKinoRay
Encoded date : UTC 2015-04-17 01:51:08
Writing application : mkvmerge v6.6.0 ('The Edge Of The In Between') built on Dec 1 2013 17:55:00
Writing library : libebml v1.3.0 + libmatroska v1.4.1
Video
ID : 1
Format : AVC
Format/Info : Advanced Video Codec
Format profile : High@L4.1
Format settings, CABAC : Yes
Format settings, ReFrames : 10 frames
Codec ID : V_MPEG4/ISO/AVC
Duration : 1h 53mn
Bit rate : 1 811 Kbps
Width : 1 024 pixels
Height : 426 pixels
Display aspect ratio : 2.40:1
Frame rate mode : Constant
Frame rate : 24.000 fps
Color space : YUV
Chroma subsampling : 4:2:0
Bit depth : 8 bits
Scan type : Progressive
Bits/(Pixel*Frame) : 0.173
Stream size : 1.40 GiB (81%)
Title : Enigma
Writing library : x264 core 133 r2334 a3ac64b
Encoding settings : cabac=1 / ref=10 / deblock=1:-2:-2 / analyse=0x3:0x113 / me=umh / subme=10 / psy=1 / psy_rd=1.05:0.15 / mixed_ref=1 / me_range=32 / chroma_me=1 / trellis=2 / 8x8dct=1 / cqm=0 / deadzone=21,11 / fast_pskip=0 / chroma_qp_offset=-3 / threads=12 / lookahead_threads=2 / sliced_threads=0 / nr=0 / decimate=0 / interlaced=0 / bluray_compat=0 / constrained_intra=0 / bframes=9 / b_pyramid=2 / b_adapt=2 / b_bias=0 / direct=3 / weightb=1 / open_gop=0 / weightp=2 / keyint=240 / keyint_min=24 / scenecut=40 / intra_refresh=0 / rc=2pass / mbtree=0 / bitrate=1811 / ratetol=1.0 / qcomp=0.60 / qpmin=0 / qpmax=51 / qpstep=4 / cplxblur=20.0 / qblur=0.5 / ip_ratio=1.40 / pb_ratio=1.30 / aq=1:1.00
Default : Yes
Forced : No
Color primaries : BT.709
Transfer characteristics : BT.709
Matrix coefficients : BT.709
Audio
ID : 2
Format : AC-3
Format/Info : Audio Coding 3
Mode extension : CM (complete main)
Format settings, Endianness : Big
Codec ID : A_AC3
Duration : 1h 53mn
Bit rate mode : Constant
Bit rate : 384 Kbps
Channel(s) : 6 channels
Channel positions : Front: L C R, Side: L R, LFE
Sampling rate : 48.0 KHz
Bit depth : 16 bits
Compression mode : Lossy
Stream size : 312 MiB (17%)
Language : Russian
Default : Yes
Forced : No
Menu
00:00:00.000 : en:Глава 1
00:05:22.000 : en:Глава 2
00:10:36.000 : en:Глава 3
00:15:12.000 : en:Глава 4
00:20:29.000 : en:Глава 5
00:25:28.000 : en:Глава 6
00:30:05.000 : en:Глава 7
00:35:19.000 : en:Глава 8
00:40:14.000 : en:Глава 9
00:45:41.000 : en:Глава 10
00:51:32.000 : en:Глава 11
00:56:15.000 : en:Глава 12
01:01:56.000 : en:Глава 13
01:06:57.000 : en:Глава 14
01:11:48.000 : en:Глава 15
01:16:27.000 : en:Глава 16
01:22:32.000 : en:Глава 17
01:27:49.000 : en:Глава 18
01:32:39.000 : en:Глава 19
01:37:02.000 : en:Глава 20
01:41:19.000 : en:Глава 21
01:45:46.000 : en:Глава 22





Релиз от:
Автор релиза:



   Похожие торренты   Торрент   Размер 
В этой теме нет новых непрочитанных сообщений. Призрак в доспехах / Ghost in the Shell (2017) WEB-DLRip-AVC от ExKinoRay | iTunes

144 | 17

1.45 ГБ

В этой теме нет новых непрочитанных сообщений. Призрак в доспехах / Ghost in the Shell (2017) WEB-DLRip-AVC от ExKinoRay | iTunes

558 | 12

2.08 ГБ

В этой теме нет новых непрочитанных сообщений. Cнайпер: воин призрак / Sniper: Ghost Shooter (2016) WEB-DLRip-AVC от ExKinoRay | iTunes Russia

514 | 90

2.3 ГБ

В этой теме нет новых непрочитанных сообщений. Cнайпер: воин призрак / Sniper: Ghost Shooter (2016) WEB-DLRip-AVC от ExKinoRay | iTunes Russia

757 | 95

1.46 ГБ

В этой теме нет новых непрочитанных сообщений. Призрак (2015) WEB-DLRip | iTunes

517 | 28

743.36 МБ

В этой теме нет новых непрочитанных сообщений. Призрак (2015) WEB-DLRip-AVC | iTunes

532 | 16

801.12 МБ

В этой теме нет новых непрочитанных сообщений. Призрак (2015) WEB-DLRip | iTunes

26147 | 583

1.46 ГБ




Вы не можете начинать темы
Вы не можете отвечать на сообщения
Вы не можете редактировать свои сообщения
Вы не можете удалять свои сообщения
Вы не можете добавлять вложения

Перейти:  
Для Мосгорсуда, Роскомнадзора и рекламодателей: mosgorsud-torrent[собачка]yandex.ru
 Вход
ppkBB3cker v.2 © 2008-2014 @ PPK
[ Time : 0.046s | 16 Queries | GZIP : Off ]

cron