img image001 image001 image001 image001 image001 image001 image001 image001 image001 image001 image001 image001 image001 image001 image001

Planets Sun Sun Sun
Статистика раздачи
Автор: Nickolas3434 | Размер: 2.04 ГБ | Добавлен: 18 апр 2015
Раздают: 799    Качают: 30
Скачать торрент
Скачать торрент
Описание торрента

СообщениеДобавлено: 18 апр 2015 


Информация о фильме
Название: Призрак
Год выхода: 2015
Жанр: комедия, семейный
Режиссер: Александр Войтинский
В ролях: Фёдор Бондарчук, Семен Трескунов, Ян Цапник, Анна Антонова, Игорь Угольников, Ксения Лаврова-Глинка, Софья Райзман, Ани Петросян, Алексей Лукин, Ольга Кузьмина
О фильме:
Еще вчера Юрий Гордеев — амбициозный авиаконструктор и любимец женщин — был в шаге от своего триумфа. Его самолет ЮГ-1 должен был стать настоящим прорывом в отечественной авиации. Но сегодня его никто не видит и не слышит, и конкурент по бизнесу беспрепятственно закрывает его компанию. Все потому, что Юра разбился в автокатастрофе и стал призраком.
Семиклассник Ваня Кузнецов был пустым местом всегда. Жертва гиперопеки матери, объект насмешек одноклассников, он боится даже заговорить с девочкой, в которую давно влюблен. У Юры есть неделя, чтобы закончить дело своей жизни и поднять самолет в воздух. Ваня — единственный, кто его видит и может ему помочь.

Страна: Россия
Продолжительность: 01:53:44
Перевод: Оригинальное [iTunes]
Файл
Кодек: AVI (XviD)
Качество: WEB-DLRip (Исх. WEB-DL 720p)
Видео: 720x304 (2.37:1), 24 fps, XviD build 73 ~2178 kbps avg, 0.41 bit/pixel
Звук: 48 kHz, AC3 Dolby Digital, 3/2 (L,C,R,l,r) + LFE ch, ~384.00 kbps avg
Субтитры: нет
Семпл
Общее
Полное имя : S:Призрак. 2015. WEB-DLRip (AleksSin).avi
Формат : AVI
Формат/Информация : Audio Video Interleave
Профиль формата : OpenDML
Размер файла : 2,04 Гбайт
Продолжительность : 1 ч. 53 м.
Общий поток : 2574 Кбит/сек
Программа кодирования : VirtualDubMod 1.5.10.3 | www.virtualdub-fr.org || (build 2550/release)
Библиотека кодирования : VirtualDubMod build 2550/release
Видео
Идентификатор : 0
Формат : MPEG-4 Visual
Профиль формата : Advanced Simple@L5
Параметр BVOP формата : 1
Параметр QPel формата : Нет
Параметр GMC формата : Без точки перехода
Параметр матрицы формата : Выборочная
Идентификатор кодека : XVID
Идентификатор кодека/Подсказка : XviD
Продолжительность : 1 ч. 53 м.
Битрейт : 2178 Кбит/сек
Ширина : 720 пикс.
Высота : 304 пикс.
Соотношение сторон : 2,35:1
Частота кадров : 24,000 кадр/сек
Цветовое пространство : YUV
Подвыборка цветности : 4:2:0
Битовая глубина : 8 бит
Тип развёртки : Прогрессивная
Метод сжатия : С потерями
Бит/(Пиксели*Кадры) : 0.415
Размер потока : 1,73 Гбайт (85%)
Библиотека кодирования : XviD 73
Аудио
Идентификатор : 1
Формат : AC-3
Формат/Информация : Audio Coding 3
Расширение режима : CM (complete main)
Идентификатор кодека : 2000
Продолжительность : 1 ч. 53 м.
Вид битрейта : Постоянный
Битрейт : 384 Кбит/сек
Каналы : 6 каналов
Расположение каналов : Front: L C R, Side: L R, LFE
Частота : 48,0 КГц
Битовая глубина : 16 бит
Метод сжатия : С потерями
Размер потока : 312 Мбайт (15%)
Выравнивание : Разделение по промежуткам
Продолжительность промежутка : 42 мс. (1,00 видеокадр)
Время предзагрузки промежутка : 500 ms



Релиз от:



   Похожие торренты   Торрент   Размер 
В этой теме нет новых непрочитанных сообщений. Призрак (2015) WEB-DLRip от AleksSin | iTunes

592 | 17

2.05 ГБ

В этой теме нет новых непрочитанных сообщений. Про Любовь (2015) WEB-DLRip от AleksSin | iTunes

537 | 9

2.05 ГБ

В этой теме нет новых непрочитанных сообщений. Метаморфозис (2015) WEB-DLRip от AleksSin | iTunes

242 | 9

745.76 МБ

В этой теме нет новых непрочитанных сообщений. Про Любовь (2015) WEB-DLRip от AleksSin | iTunes

1004 | 46

746.81 МБ

В этой теме нет новых непрочитанных сообщений. Родина (2015) WEB-DLRip от AleksSin | iTunes

432 | 27

753.23 МБ

В этой теме нет новых непрочитанных сообщений. Эшби / Ashby (2015) WEB-DLRip от AleksSin | iTunes

810 | 39

2.06 ГБ

В этой теме нет новых непрочитанных сообщений. Простушка / The DUFF (2015) WEB-DLRip от AleksSin | iTunes

537 | 23

745.13 МБ




Вы не можете начинать темы
Вы не можете отвечать на сообщения
Вы не можете редактировать свои сообщения
Вы не можете удалять свои сообщения
Вы не можете добавлять вложения

Перейти:  
Для Мосгорсуда, Роскомнадзора и рекламодателей: mosgorsud-torrent[собачка]yandex.ru
 Вход
ppkBB3cker v.2 © 2008-2014 @ PPK
[ Time : 0.052s | 15 Queries | GZIP : Off ]

cron