img image001 image001 image001 image001 image001 image001 image001 image001 image001 image001 image001 image001 image001 image001 image001

Planets Sun Sun Sun
Статистика раздачи
Автор: Nickolas3434 | Размер: 1.09 ГБ | Добавлен: 18 апр 2015
Раздают: 17    Качают: 5
Скачать торрент
Скачать торрент
Описание торрента

СообщениеДобавлено: 18 апр 2015 

Страна: СССР
Производство: Yerevan Film Studio
Жанр: драма, военный
Год выпуска: 1944
Продолжительность: 01:28:36
Перевод: Не требуется
Cубтитры: нет
Оригинальная аудиодорожка: русский
Режиссер: Борис Барнет
В ролях:
Борис Андреев, Иван Кузнецов, Николай Дупак, Ирина Радченко, Алексей Юдин, Борис Барнет, Владимир Леонов, Ольга Горева, Б. Вяземский...
Описание:
Однажды ночью на развалины захваченного города падает горящий самолет. Молодая учительница с риском для жизни спасает трех раненных бойцов.
Это фильм о подвиге, который совершает обыкновенная девушка, больше похожая на школьницу, хрупкая, беспомощная, которая боится врагов. Но сильнее страха — мужество и непреклонность, которые живут в ее душе.





Источник: DVD5 R5
Качество видео: DVDRip
Формат видео: AVI
Видео: 688x512 (4:3), 25 fps, XviD ~ 1560 kbps avg, 0.177 bit/pixel
Аудио: 48 kHz, Dolby Digital AC3 2.0, 192 kbps
Раздача от:
Общее
Полное имя : Odnazhdy.nochyu.1944.DVDRip_[New-team]_by_AVP_Studio.avi
Формат : AVI
Формат/Информация : Audio Video Interleave
Размер файла : 1,09 Гбайт
Продолжительность : 1 ч. 28 м.
Общий поток : 1761 Кбит/сек
Программа кодирования : VirtualDubModRus 1.5.10.2 (build 2542/release)
Библиотека кодирования : VirtualDubMod build 2542/release
Видео
Идентификатор : 0
Формат : MPEG-4 Visual
Профиль формата : Advanced Simple@L5
Параметр BVOP формата : 1
Параметр QPel формата : Нет
Параметр GMC формата : Без точки перехода
Параметр матрицы формата : Выборочная
Идентификатор кодека : XVID
Идентификатор кодека/Подсказка : XviD
Продолжительность : 1 ч. 28 м.
Битрейт : 1560 Кбит/сек
Ширина : 688 пикселей
Высота : 512 пикселей
Соотношение сторон : 4:3
Частота кадров : 25,000 кадров/сек
Цветовое пространство : YUV
Субдискретизация насыщенности : 4:2:0
Битовая глубина : 8 бит
Тип развёртки : Прогрессивная
Метод сжатия : С потерями
Бит/(Пиксели*Кадры) : 0.177
Размер потока : 989 Мбайт (89%)
Библиотека кодирования : XviD 73
Аудио
Идентификатор : 1
Формат : AC-3
Формат/Информация : Audio Coding 3
Расширение режима : CM (complete main)
Параметр Endianness формата : Big
Идентификатор кодека : 2000
Продолжительность : 1 ч. 28 м.
Вид битрейта : Постоянный
Битрейт : 192 Кбит/сек
Каналы : 2 канала
Расположение каналов : Front: L R
Частота : 48,0 КГц
Битовая глубина : 16 бит
Метод сжатия : С потерями
Размер потока : 122 Мбайт (11%)
Выравнивание : Разделение по промежуткам
Продолжительность промежутка : 40 мс. (1,00 видеокадр)
Время предзагрузки промежутка : 500 мс





   Похожие торренты   Торрент   Размер 
В этой теме нет новых непрочитанных сообщений. Однажды ночью (1944) DVDRip-AVC от New-Team

20 | 3

1.09 ГБ

В этой теме нет новых непрочитанных сообщений. Однажды ночью (1944) DVDRip от New-Team

10 | 3

745.02 МБ

В этой теме нет новых непрочитанных сообщений. Однажды ночью / Una noche (2012) DVDRip-AVC | L 1

37 | 7

1.93 ГБ

В этой теме нет новых непрочитанных сообщений. Это случилось однажды ночью / It Happened One Night (1934) DVDRip от ExKinoRay

22 | 2

1.47 ГБ

В этой теме нет новых непрочитанных сообщений. Это случилось однажды ночью / It happened one night (1934) DVDRip by FS-Media

10 | 1

1.45 ГБ

В этой теме нет новых непрочитанных сообщений. Однажды ночью в одном городе / Jedné noci v jednom městě (2007) DVDRip

53 | 7

696.51 МБ

В этой теме нет новых непрочитанных сообщений. 1944 / 1944 (2015) BDRip-AVC от New-Team | Лицензия

184 | 20

2.18 ГБ




Вы не можете начинать темы
Вы не можете отвечать на сообщения
Вы не можете редактировать свои сообщения
Вы не можете удалять свои сообщения
Вы не можете добавлять вложения

Перейти:  
Для Мосгорсуда, Роскомнадзора и рекламодателей: mosgorsud-torrent[собачка]yandex.ru
 Вход
ppkBB3cker v.2 © 2008-2014 @ PPK
[ Time : 0.017s | 15 Queries | GZIP : Off ]

Торрент трекер RUTOR.IN, Не можете зайти на rutor.org? Какой новый адрес рутор? Какое зеркало рутор? Не работает rutor.org и зеркала? Тогда наш торрент специально для вас. Rutor.in неофициальное зеркало rutor. В случае если у Вас заблокирован rutor или вдруг Вы не можете на него зайти, то Вы без труда сможете скачать бесплатно и без рекламы последние новинки кино, игр, сериалов и прочего у нас, на Rutor.in. Не нужно использовать прокси, чтобы зайти на рутор, достаточно воспользоваться нашим ресурсом. Все новые фильмы, игры, сериалы, книги и музыка за 2013 и 2014 годы через торрент бесплатно. Скачивайте фильмы в хорошем качестве, игры для пк, xbox, playstation без регистрации. У нас вы найдете новые Зарубежные сериалы и Русские сериалы 2013, 2014, 2015 годов. Оставайтесь с нами, качайте любимые фильмы, игры, сериалы, книги и музыку.