img image001 image001 image001 image001 image001 image001 image001 image001 image001 image001 image001 image001 image001 image001 image001

Planets Sun Sun Sun
Статистика раздачи
Автор: Nickolas3434 | Размер: 742.88 МБ | Добавлен: 18 апр 2015
Раздают: 30    Качают: 4
Скачать торрент
Скачать торрент
Описание торрента

СообщениеДобавлено: 18 апр 2015 

Страна: СССР
Производство: Союздетфильм
Жанр: драма, криминал, детектив
Год выпуска: 1944
Продолжительность: 01:10:22
Перевод: Не требуется
Cубтитры: нет
Оригинальная аудиодорожка: русский
Режиссер: Владимир Легошин
В ролях:
Сергей Лукьянов, Владимир Белокуров, Андрей Тутышкин, Нина Алисова, Надир Малишевский, Алексей Грибов, Омар Абдулов, Анна Заржицкая, Ирина Меснонкина, Василий Нещипленко...
Описание:
По повести И.Шейнина "Военная тайна".
Во время Великой Отечественной войны агент фашистской разведки получает задание захватить и доставить в Германию инженера Леонтьева, разработавшего сверхмощное секретное оружие...





Источник: DVD5 R5
Качество видео: DVDRip
Формат видео: AVI
Видео: 688x512 (4:3), 25 fps, XviD ~ 1338 kbps avg, 0.152 bit/pixel
Аудио: 48 kHz, MP3 2.0, 128 kbps
Раздача от:
Общее
Полное имя : Poedinok.1944.DVDRip_[New-team]_by_AVP_Studio.avi
Формат : AVI
Формат/Информация : Audio Video Interleave
Размер файла : 743 Мбайт
Продолжительность : 1 ч. 10 м.
Общий поток : 1476 Кбит/сек
Программа кодирования : VirtualDubModRus 1.5.10.2 (build 2542/release)
Библиотека кодирования : VirtualDubMod build 2542/release
Видео
Идентификатор : 0
Формат : MPEG-4 Visual
Профиль формата : Advanced Simple@L5
Параметр BVOP формата : 1
Параметр QPel формата : Нет
Параметр GMC формата : Без точки перехода
Параметр матрицы формата : Выборочная
Идентификатор кодека : XVID
Идентификатор кодека/Подсказка : XviD
Продолжительность : 1 ч. 10 м.
Битрейт : 1338 Кбит/сек
Ширина : 688 пикселей
Высота : 512 пикселей
Соотношение сторон : 4:3
Частота кадров : 25,000 кадров/сек
Цветовое пространство : YUV
Субдискретизация насыщенности : 4:2:0
Битовая глубина : 8 бит
Тип развёртки : Прогрессивная
Метод сжатия : С потерями
Бит/(Пиксели*Кадры) : 0.152
Размер потока : 674 Мбайт (91%)
Библиотека кодирования : XviD 73
Аудио
Идентификатор : 1
Формат : MPEG Audio
Версия формата : Version 1
Профиль формата : Layer 3
Идентификатор кодека : 55
Идентификатор кодека/Подсказка : MP3
Продолжительность : 1 ч. 10 м.
Вид битрейта : Постоянный
Битрейт : 128 Кбит/сек
Каналы : 2 канала
Частота : 48,0 КГц
Метод сжатия : С потерями
Размер потока : 64,4 Мбайт (9%)
Выравнивание : Соединение по промежуткам
Продолжительность промежутка : 40 мс. (1,00 видеокадр)
Время предзагрузки промежутка : 504 мс.
Библиотека кодирования : LAME3.99r
Настройки программы : -m s -V 4 -q 2 -lowpass 17 -b 128





   Похожие торренты   Торрент   Размер 
В этой теме нет новых непрочитанных сообщений. Поединок (1944) DVDRip-AVC от New-Team

21 | 3

743.86 МБ

В этой теме нет новых непрочитанных сообщений. Поединок (1944) WEBRip

20 | 4

807.12 МБ

В этой теме нет новых непрочитанных сообщений. 1944 / 1944 (2015) BDRip-AVC от New-Team | Лицензия

1544 | 172

1.46 ГБ

В этой теме нет новых непрочитанных сообщений. 1944 / 1944 (2015) BDRip-AVC от New-Team | Лицензия

151 | 14

2.18 ГБ

В этой теме нет новых непрочитанных сообщений. Поединок (1957) DVDRip-AVC от New-Team

5 | 0

1.46 ГБ

В этой теме нет новых непрочитанных сообщений. Поединок (1957) DVDRip от New-Team

2 | 1

1.46 ГБ

В этой теме нет новых непрочитанных сообщений. Поединок (1957) DVDRip от New-Team

1 | 1

745.2 МБ




Вы не можете начинать темы
Вы не можете отвечать на сообщения
Вы не можете редактировать свои сообщения
Вы не можете удалять свои сообщения
Вы не можете добавлять вложения

Перейти:  
Для Мосгорсуда, Роскомнадзора и рекламодателей: mosgorsud-torrent[собачка]yandex.ru
 Вход
ppkBB3cker v.2 © 2008-2014 @ PPK
[ Time : 0.036s | 18 Queries | GZIP : Off ]

cron