img image001 image001 image001 image001 image001 image001 image001 image001 image001 image001 image001 image001 image001 image001 image001

Planets Sun Sun Sun
Статистика раздачи
Автор: Nickolas3434 | Размер: 1.58 ГБ | Добавлен: 19 апр 2015
Раздают: 482    Качают: 23
Скачать торрент
Скачать торрент
Описание торрента

СообщениеДобавлено: 19 апр 2015 


Информация о фильме
Оригинальное название: ДухLess 2
Год выхода: 2015
Жанр: Боевик, драма, экранизация
Режиссер: Роман Прыгунов
В ролях: Данила Козловский, Мария Андреева, Милош Бикович, Павел Ворожцов, Сергей Бурунов, Владимир Симонов, Доминик Пинон, Александра Бортич, Яна Набокова, Анна Александрова, Лев Прыгунов
О фильме:
Макс Андреев решил начать жизнь с чистого листа, для чего отправился на остров в Юго-Восточной Азии. Казалось, что теперь его идеальную жизнь ничто не нарушит, но однажды к нему приезжает старый друг из прошлой столичной жизни. Обстоятельства складываются так, что Макс возвращается на родину, где ему предстоит стать частью чего-то нового. Казалось, что он уже давно осознал все свои ошибки, и больше никогда не повторит их. Но вскоре ему предстоит встретиться со своим прошлым, которое он так и не смог отпустить…

Страна: Россия
Студия: Арт Пикчерс Студия, Кинослово
Продолжительность: 01:51:32
Перевод: Оригинал (BD RUS)
Файл
Кодек: MPEG-4 AVC
Качество: BDRip-AVC
Видео: 1575 Кбит/с, 1024х432, 24 кадр/с
Звук: Русский (AC3, 6 ch, 448 Кбит/с)
Рип от StarbirS
Аудио: Russian: 48 kHz, AC3, 3/2 (L,C,R,l,r) + LFE ch, ~ 448.00 kbps avg - Оригинал (BD RUS)
x264 [info]: frame I:1296 Avg QP:15.37 size: 51898
x264 [info]: frame P:43077 Avg QP:19.07 size: 16395
x264 [info]: frame B:116221 Avg QP:21.18 size: 4669

Формат : Matroska
Версия формата : Version 2
Размер файла : 1,58 Гбайт
Продолжительность : 1 ч. 51 м.
Общий поток : 2023 Кбит/сек
Название фильма : ДухLess.2.2015.x264.O.BDRip.(AVC)
Дата кодирования : UTC 2015-04-18 05:11:23
Программа кодирования : mkvmerge v7.7.0 ('Six Voices') 64bit built on Feb 28 2015 23:39:33
Библиотека кодирования : libebml v1.3.1 + libmatroska v1.4.2
Видео
Идентификатор : 1
Формат : AVC
Формат/Информация : Advanced Video Codec
Профиль формата : High@L4.1
Параметр CABAC формата : Да
Параметр ReFrames формата : 11 кадров
Идентификатор кодека : V_MPEG4/ISO/AVC
Продолжительность : 1 ч. 51 м.
Битрейт : 1575 Кбит/сек
Ширина : 1024 пикселя
Высота : 432 пикселя
Соотношение сторон : 2,40:1
Режим частоты кадров : Постоянный
Частота кадров : 24,000 кадра/сек
Цветовое пространство : YUV
Субдискретизация насыщенности : 4:2:0
Битовая глубина : 8 бит
Тип развёртки : Прогрессивная
Бит/(Пиксели*Кадры) : 0.148
Размер потока : 1,20 Гбайт (76%)
Заголовок : ДухLess.2.2015.x264.O.BDRip.(AVC).by.StarbirS
Библиотека кодирования : x264 core 146 r2538 121396c
Настройки программы : cabac=1 / ref=11 / deblock=1:-2:-2 / analyse=0x3:0x133 / me=umh / subme=10 / psy=1 / psy_rd=1.05:0.15 / mixed_ref=1 / me_range=32 / chroma_me=1 / trellis=2 / 8x8dct=1 / cqm=0 / deadzone=21,11 / fast_pskip=0 / chroma_qp_offset=-3 / threads=12 / lookahead_threads=2 / sliced_threads=0 / nr=0 / decimate=0 / interlaced=0 / bluray_compat=0 / constrained_intra=0 / bframes=7 / b_pyramid=2 / b_adapt=2 / b_bias=0 / direct=3 / weightb=1 / open_gop=1 / weightp=2 / keyint=240 / keyint_min=23 / scenecut=40 / intra_refresh=0 / rc=2pass / mbtree=0 / bitrate=1575 / ratetol=1.0 / qcomp=0.70 / qpmin=0 / qpmax=69 / qpstep=4 / cplxblur=20.0 / qblur=0.5 / ip_ratio=1.40 / pb_ratio=1.30 / aq=1:0.90
Язык : English
Default : Да
Forced : Нет
Аудио
Идентификатор : 2
Формат : AC-3
Формат/Информация : Audio Coding 3
Расширение режима : CM (complete main)
Параметр Endianness формата : Big
Идентификатор кодека : A_AC3
Продолжительность : 1 ч. 51 м.
Вид битрейта : Постоянный
Битрейт : 448 Кбит/сек
Каналы : 6 каналов
Расположение каналов : Front: L C R, Side: L R, LFE
Частота : 48,0 КГц
Битовая глубина : 16 бит
Метод сжатия : С потерями
Размер потока : 357 Мбайт (22%)
Заголовок : Оригинал (BD RUS)
Язык : Russian
Default : Да
Forced : Нет
Меню
00:00:00.000 : en:00:00:00.000
00:10:49.583 : en:00:10:49.583
00:22:23.625 : en:00:22:23.625
00:28:42.083 : en:00:28:42.083
00:35:50.083 : en:00:35:50.083
00:47:02.333 : en:00:47:02.333
00:55:14.625 : en:00:55:14.625
01:05:19.083 : en:01:05:19.083
01:15:50.542 : en:01:15:50.542
01:23:27.125 : en:01:23:27.125
01:32:09.458 : en:01:32:09.458
01:43:26.458 : en:01:43:26.458




   Похожие торренты   Торрент   Размер 
В этой теме нет новых непрочитанных сообщений. ДухLess 2 (2015) BDRip 1080p

720 | 46

7.74 ГБ

В этой теме нет новых непрочитанных сообщений. ДухLess 2 (2015) BDRip 720p

1593 | 55

4.39 ГБ

В этой теме нет новых непрочитанных сообщений. Духless 2 (2015) BDRip от HQCLUB | Лицензия

1085 | 45

1.99 ГБ

В этой теме нет новых непрочитанных сообщений. ДухLess: Дилогия (2012-2015) BDRip 1080p | Лицензия

955 | 48

11.54 ГБ

В этой теме нет новых непрочитанных сообщений. ДухLess: Дилогия (2012-2015) BDRip от ExKinoRay | Лицензия

106 | 11

2.91 ГБ

В этой теме нет новых непрочитанных сообщений. ДухLess: Дилогия (2012-2015) BDRip-AVC от HELLYWOOD | Лицензия

908 | 266

2.92 ГБ

В этой теме нет новых непрочитанных сообщений. Духless 2 (2015) BDRip 1080p от Leonardo and Scarabey | Лицензия

2286 | 121

5.82 ГБ




Вы не можете начинать темы
Вы не можете отвечать на сообщения
Вы не можете редактировать свои сообщения
Вы не можете удалять свои сообщения
Вы не можете добавлять вложения

Перейти:  
Для Мосгорсуда, Роскомнадзора и рекламодателей: mosgorsud-torrent[собачка]yandex.ru
 Вход
ppkBB3cker v.2 © 2008-2014 @ PPK
[ Time : 0.019s | 14 Queries | GZIP : Off ]

Торрент трекер RUTOR.IN, Не можете зайти на rutor.org? Какой новый адрес рутор? Какое зеркало рутор? Не работает rutor.org и зеркала? Тогда наш торрент специально для вас. Rutor.in неофициальное зеркало rutor. В случае если у Вас заблокирован rutor или вдруг Вы не можете на него зайти, то Вы без труда сможете скачать бесплатно и без рекламы последние новинки кино, игр, сериалов и прочего у нас, на Rutor.in. Не нужно использовать прокси, чтобы зайти на рутор, достаточно воспользоваться нашим ресурсом. Все новые фильмы, игры, сериалы, книги и музыка за 2013 и 2014 годы через торрент бесплатно. Скачивайте фильмы в хорошем качестве, игры для пк, xbox, playstation без регистрации. У нас вы найдете новые Зарубежные сериалы и Русские сериалы 2013, 2014, 2015 годов. Оставайтесь с нами, качайте любимые фильмы, игры, сериалы, книги и музыку.