img image001 image001 image001 image001 image001 image001 image001 image001 image001 image001 image001 image001 image001 image001 image001

Planets Sun Sun Sun
Статистика раздачи
Автор: Nickolas3434 | Размер: 744.81 МБ | Добавлен: 22 апр 2015
Раздают: 28    Качают: 9
Скачать торрент
Скачать торрент
Описание торрента

СообщениеДобавлено: 22 апр 2015 

Страна: СССР
Производство: Ленфильм, Рижская киностудия
Жанр: драма, военный
Год выпуска: 1946
Продолжительность: 01:16:24
Перевод: Не требуется
Cубтитры: нет
Оригинальная аудиодорожка: русский
Режиссер: Александр Иванов
В ролях:
Олег Жаков, Лидия Смирнова, Николай Чиббиус, Василий Ванин, Анна Петухова, Василий Меркурьев, Лидия Сухаревская, Геннадий Мичурин, Виталий Полицеймако, Григорий Шпигель...
Описание:
В одном из районов оккупированной фашистами Латвии гитлеровцы арестовывают крестьянского парня Яниса. Первый побег завершается новым арестом. На этот раз его задерживает младший брат, ставший полицаем. После следующего побега жена Илга и дочь попадают в концлагерь. И теперь Янис готов на все, чтобы их спасти...





Источник: DVD5 R5
Качество видео: DVDRip
Формат видео: AVI
Видео: 672x496 (4:3), 25 fps, XviD ~ 1225 kbps avg, 0.147 bit/pixel
Аудио: 48 kHz, MP3 2.0, 128 kbps
Раздача от:
Общее
Полное имя : Synovya.1946.DVDRip_[New-team]_by_AVP_Studio.avi
Формат : AVI
Формат/Информация : Audio Video Interleave
Размер файла : 745 Мбайт
Продолжительность : 1 ч. 16 м.
Общий поток : 1363 Кбит/сек
Программа кодирования : VirtualDubModRus 1.5.10.2 (build 2542/release)
Библиотека кодирования : VirtualDubMod build 2542/release
Видео
Идентификатор : 0
Формат : MPEG-4 Visual
Профиль формата : Advanced Simple@L5
Параметр BVOP формата : 1
Параметр QPel формата : Нет
Параметр GMC формата : Без точки перехода
Параметр матрицы формата : Выборочная
Идентификатор кодека : XVID
Идентификатор кодека/Подсказка : XviD
Продолжительность : 1 ч. 16 м.
Битрейт : 1225 Кбит/сек
Ширина : 672 пикселя
Высота : 496 пикселей
Соотношение сторон : 4:3
Частота кадров : 25,000 кадров/сек
Цветовое пространство : YUV
Субдискретизация насыщенности : 4:2:0
Битовая глубина : 8 бит
Тип развёртки : Прогрессивная
Метод сжатия : С потерями
Бит/(Пиксели*Кадры) : 0.147
Размер потока : 670 Мбайт (90%)
Библиотека кодирования : XviD 73
Аудио
Идентификатор : 1
Формат : MPEG Audio
Версия формата : Version 1
Профиль формата : Layer 3
Идентификатор кодека : 55
Идентификатор кодека/Подсказка : MP3
Продолжительность : 1 ч. 16 м.
Вид битрейта : Постоянный
Битрейт : 128 Кбит/сек
Каналы : 2 канала
Частота : 48,0 КГц
Метод сжатия : С потерями
Размер потока : 70,0 Мбайт (9%)
Выравнивание : Соединение по промежуткам
Продолжительность промежутка : 40 мс. (1,00 видеокадр)
Время предзагрузки промежутка : 504 мс.
Библиотека кодирования : LAME3.99r
Настройки программы : -m s -V 4 -q 2 -lowpass 17 -b 128





   Похожие торренты   Торрент   Размер 
В этой теме нет новых непрочитанных сообщений. Сыновья (1946) DVDRip-AVC от New-Team

21 | 10

743.66 МБ

В этой теме нет новых непрочитанных сообщений. Клятва (1946) DVDRip-AVC от New-Team

63 | 3

1.46 ГБ

В этой теме нет новых непрочитанных сообщений. Глинка (1946) DVDRip от New-Team

10 | 55

744.36 МБ

В этой теме нет новых непрочитанных сообщений. Сын полка (1946) DVDRip от New-Team

45 | 4

743.75 МБ

В этой теме нет новых непрочитанных сообщений. Глинка (1946) DVDRip от New-Team

4 | 6

1.46 ГБ

В этой теме нет новых непрочитанных сообщений. Клятва (1946) DVDRip от New-Team

18 | 2

746.48 МБ

В этой теме нет новых непрочитанных сообщений. Клятва (1946) DVDRip от New-Team

23 | 4

1.46 ГБ




Вы не можете начинать темы
Вы не можете отвечать на сообщения
Вы не можете редактировать свои сообщения
Вы не можете удалять свои сообщения
Вы не можете добавлять вложения

Перейти:  
Для Мосгорсуда, Роскомнадзора и рекламодателей: mosgorsud-torrent[собачка]yandex.ru
 Вход
ppkBB3cker v.2 © 2008-2014 @ PPK
[ Time : 0.054s | 16 Queries | GZIP : Off ]

Торрент трекер RUTOR.IN, Не можете зайти на rutor.org? Какой новый адрес рутор? Какое зеркало рутор? Не работает rutor.org и зеркала? Тогда наш торрент специально для вас. Rutor.in неофициальное зеркало rutor. В случае если у Вас заблокирован rutor или вдруг Вы не можете на него зайти, то Вы без труда сможете скачать бесплатно и без рекламы последние новинки кино, игр, сериалов и прочего у нас, на Rutor.in. Не нужно использовать прокси, чтобы зайти на рутор, достаточно воспользоваться нашим ресурсом. Все новые фильмы, игры, сериалы, книги и музыка за 2013 и 2014 годы через торрент бесплатно. Скачивайте фильмы в хорошем качестве, игры для пк, xbox, playstation без регистрации. У нас вы найдете новые Зарубежные сериалы и Русские сериалы 2013, 2014, 2015 годов. Оставайтесь с нами, качайте любимые фильмы, игры, сериалы, книги и музыку.