img image001 image001 image001 image001 image001 image001 image001 image001 image001 image001 image001 image001 image001 image001 image001

Planets Sun Sun Sun
Статистика раздачи
Автор: Nickolas3434 | Размер: 744.39 МБ | Добавлен: 23 апр 2015
Раздают: 29    Качают: 45
Скачать торрент
Скачать торрент
Описание торрента

СообщениеДобавлено: 23 апр 2015 

Страна: СССР
Производство: Мосфильм
Жанр: комедия
Год выпуска: 1945
Продолжительность: 01:19:10
Перевод: Не требуется
Cубтитры: нет
Оригинальная аудиодорожка: русский
Режиссер: Константин Юдин
В ролях:
Михаил Жаров, Людмила Целиковская, Вера Орлова, Павел Шпрингфельд, Андрей Тутышкин, Ирина Мурзаева, Дмитрий Павлов, Константин Сорокин, Владимир Грибков, Инна Фёдорова...
Описание:
Найдя на вокзале двух близнецов, Люба Карасева решает их усыновить. Все пытаются помочь молодой маме, кроме начальника базы горторга Еропкина, который имеет собственные виды на девушку. Но дети исчезают... В результате поисков находится их настоящая мать, затем и близнецы. А Еропкин оказывается, в конце концов, не только отцом брошенных детей, но и проходимцем...





Источник: DVB
Качество видео: SATRip
Формат видео: AVI
Видео: 656x480 (1,366:1), 25 fps, XviD ~ 1177 kbps avg, 0.150 bit/pixel
Аудио: 48 kHz, MP3 2.0, 128 kbps
Раздача от:
Общее
Полное имя : Bliznecy.1945.SATRip-745_[New-team]_by_AVP_Studio.avi
Формат : AVI
Формат/Информация : Audio Video Interleave
Размер файла : 744 Мбайт
Продолжительность : 1 ч. 19 м.
Общий поток : 1315 Кбит/сек
Программа кодирования : VirtualDubModRus 1.5.10.2 (build 2542/release)
Библиотека кодирования : VirtualDubMod build 2542/release
Видео
Идентификатор : 0
Формат : MPEG-4 Visual
Профиль формата : Advanced Simple@L5
Параметр BVOP формата : 1
Параметр QPel формата : Нет
Параметр GMC формата : Без точки перехода
Параметр матрицы формата : Выборочная
Идентификатор кодека : XVID
Идентификатор кодека/Подсказка : XviD
Продолжительность : 1 ч. 19 м.
Битрейт : 1177 Кбит/сек
Ширина : 656 пикселей
Высота : 480 пикселей
Соотношение сторон : 1,366
Частота кадров : 25,000 кадров/сек
Цветовое пространство : YUV
Субдискретизация насыщенности : 4:2:0
Битовая глубина : 8 бит
Тип развёртки : Прогрессивная
Метод сжатия : С потерями
Бит/(Пиксели*Кадры) : 0.150
Размер потока : 666 Мбайт (90%)
Библиотека кодирования : XviD 73
Аудио
Идентификатор : 1
Формат : MPEG Audio
Версия формата : Version 1
Профиль формата : Layer 3
Идентификатор кодека : 55
Идентификатор кодека/Подсказка : MP3
Продолжительность : 1 ч. 19 м.
Вид битрейта : Постоянный
Битрейт : 128 Кбит/сек
Каналы : 2 канала
Частота : 48,0 КГц
Метод сжатия : С потерями
Размер потока : 72,5 Мбайт (10%)
Выравнивание : Соединение по промежуткам
Продолжительность промежутка : 40 мс. (1,00 видеокадр)
Время предзагрузки промежутка : 504 мс.
Библиотека кодирования : LAME3.99r
Настройки программы : -m s -V 4 -q 2 -lowpass 17 -b 128





   Похожие торренты   Торрент   Размер 
В этой теме нет новых непрочитанных сообщений. Близнецы (1945) SATRip от New-Team

43 | 6

1.09 ГБ

В этой теме нет новых непрочитанных сообщений. Близнецы (1945) SATRip-AVC от New-Team

33 | 6

1.09 ГБ

В этой теме нет новых непрочитанных сообщений. Близнецы (1945) TVRip от Youtracker

6 | 5

1.45 ГБ

В этой теме нет новых непрочитанных сообщений. Берлинская конференция (1945) SATRip от New-Team

58 | 7

372.36 МБ

В этой теме нет новых непрочитанных сообщений. Берлинская конференция (1945) SATRip-AVC от New-Team

57 | 5

372.1 МБ

В этой теме нет новых непрочитанных сообщений. Крымская конференция (1945) SATRip-AVC от New-Team

210 | 25

744.26 МБ

В этой теме нет новых непрочитанных сообщений. Пропавшая грамота (1945) SATRip-AVC от New-Team

47 | 7

447.11 МБ




Вы не можете начинать темы
Вы не можете отвечать на сообщения
Вы не можете редактировать свои сообщения
Вы не можете удалять свои сообщения
Вы не можете добавлять вложения

Перейти:  
Для Мосгорсуда, Роскомнадзора и рекламодателей: mosgorsud-torrent[собачка]yandex.ru
 Вход
ppkBB3cker v.2 © 2008-2014 @ PPK
[ Time : 0.060s | 15 Queries | GZIP : Off ]

Торрент трекер RUTOR.IN, Не можете зайти на rutor.org? Какой новый адрес рутор? Какое зеркало рутор? Не работает rutor.org и зеркала? Тогда наш торрент специально для вас. Rutor.in неофициальное зеркало rutor. В случае если у Вас заблокирован rutor или вдруг Вы не можете на него зайти, то Вы без труда сможете скачать бесплатно и без рекламы последние новинки кино, игр, сериалов и прочего у нас, на Rutor.in. Не нужно использовать прокси, чтобы зайти на рутор, достаточно воспользоваться нашим ресурсом. Все новые фильмы, игры, сериалы, книги и музыка за 2013 и 2014 годы через торрент бесплатно. Скачивайте фильмы в хорошем качестве, игры для пк, xbox, playstation без регистрации. У нас вы найдете новые Зарубежные сериалы и Русские сериалы 2013, 2014, 2015 годов. Оставайтесь с нами, качайте любимые фильмы, игры, сериалы, книги и музыку.