img image001 image001 image001 image001 image001 image001 image001 image001 image001 image001 image001 image001 image001 image001 image001

Planets Sun Sun Sun
Статистика раздачи
Автор: Nickolas3434 | Размер: 372.1 МБ | Добавлен: 24 апр 2015
Раздают: 57    Качают: 5
Скачать торрент
Скачать торрент
Описание торрента

СообщениеДобавлено: 24 апр 2015 

Страна: СССР
Производство: Центральная студия документальных фильмов
Жанр: документальный
Год выпуска: 1945
Продолжительность: 00:20:41
Перевод: Не требуется
Cубтитры: нет
Оригинальная аудиодорожка: русский
Режиссер: Илья Копалин
Описание:
Берли́нская конфере́нция 1945 (Потсдамская конференция) (17 июля — 2 августа, Потсдам) глав представительств главных держав — победительниц во 2-й мировой войне: СССР (И. В. Сталин), США (Г. Трумэн) и Великобритании (У. Черчилль, с 28 июля К. Эттли ). Приняла решение о демилитаризации и денацификации Германии, уничтожении германских монополий, о репарациях, о западной границе Польши; подтвердила передачу СССР г. Кенигсберг и прилегающего к нему района. В самом начале Берлинской конференции был одобрен американский проект создания Совета министров иностранных дел Великобритании, СССР, Китая, Франции и США, т. е. пяти государств — постоянных членов Совета Безопасности ООН.





Источник: DVB
Качество видео: SATRip-AVC
Формат видео: MKV
Видео: 704->762x572 (4:3), 25 fps, H264 ~ 2323 kbps avg, 0.231 bit/pixel
Аудио: 48 kHz, Dolby Digital AC3 2.0, 192 kbps
Раздача от:
Общее
Полное имя : Berlinskaya.konferenciya.1945.SATRip-AVC_[New-team]_by_AVP_Studio.mkv
Формат : Matroska
Версия формата : Version 2
Размер файла : 372 Мбайт
Продолжительность : 20 м.
Общий поток : 2516 Кбит/сек
Дата кодирования : UTC 2015-04-22 11:44:31
Программа кодирования : mkvmerge v6.1.0 ('Old Devil') built on Mar 4 2013 09:10:42
Библиотека кодирования : libebml v1.3.0 + libmatroska v1.4.0
Видео
Идентификатор : 1
Формат : AVC
Формат/Информация : Advanced Video Codec
Профиль формата : High@L4.1
Параметр CABAC формата : Да
Параметр ReFrames формата : 8 кадров
Идентификатор кодека : V_MPEG4/ISO/AVC
Продолжительность : 20 м.
Битрейт : 2323 Кбит/сек
Ширина : 704 пикселя
Высота : 572 пикселя
Соотношение сторон : 4:3
Режим частоты кадров : Постоянный
Частота кадров : 25,000 кадров/сек
Цветовое пространство : YUV
Субдискретизация насыщенности : 4:2:0
Битовая глубина : 8 бит
Тип развёртки : Прогрессивная
Бит/(Пиксели*Кадры) : 0.231
Размер потока : 336 Мбайт (90%)
Библиотека кодирования : x264 core 138 r2356 a1d3d17
Настройки программы : cabac=1 / ref=8 / deblock=1:-2:-1 / analyse=0x3:0x113 / me=umh / subme=10 / psy=1 / psy_rd=1.00:0.05 / mixed_ref=1 / me_range=32 / chroma_me=1 / trellis=2 / 8x8dct=1 / cqm=0 / deadzone=21,11 / fast_pskip=0 / chroma_qp_offset=-3 / threads=6 / lookahead_threads=1 / sliced_threads=0 / nr=0 / decimate=0 / interlaced=0 / bluray_compat=0 / constrained_intra=0 / bframes=8 / b_pyramid=2 / b_adapt=2 / b_bias=0 / direct=3 / weightb=1 / open_gop=0 / weightp=2 / keyint=250 / keyint_min=25 / scenecut=40 / intra_refresh=0 / rc=2pass / mbtree=0 / bitrate=2323 / ratetol=1.0 / qcomp=0.60 / qpmin=0 / qpmax=69 / qpstep=4 / cplxblur=20.0 / qblur=0.5 / ip_ratio=1.40 / pb_ratio=1.30 / aq=1:1.00
Default : Да
Forced : Нет
Аудио
Идентификатор : 2
Формат : AC-3
Формат/Информация : Audio Coding 3
Расширение режима : CM (complete main)
Параметр Endianness формата : Big
Идентификатор кодека : A_AC3
Продолжительность : 20 м.
Вид битрейта : Постоянный
Битрейт : 192 Кбит/сек
Каналы : 2 канала
Расположение каналов : Front: L R
Частота : 48,0 КГц
Битовая глубина : 16 бит
Метод сжатия : С потерями
Размер потока : 28,4 Мбайт (8%)
Default : Да
Forced : Нет





   Похожие торренты   Торрент   Размер 
В этой теме нет новых непрочитанных сообщений. Берлинская конференция (1945) SATRip от New-Team

58 | 7

372.36 МБ

В этой теме нет новых непрочитанных сообщений. Берлинская конференция. 17 июля - 2 августа 1945 года (1945) SATRip от Generalfilm | Цветной

23 | 114

303.03 МБ

В этой теме нет новых непрочитанных сообщений. Крымская конференция (1945) SATRip-AVC от New-Team

210 | 25

744.26 МБ

В этой теме нет новых непрочитанных сообщений. Крымская конференция (1945) SATRip от New-Team

25 | 18

744.55 МБ

В этой теме нет новых непрочитанных сообщений. Близнецы (1945) SATRip от New-Team

29 | 45

744.39 МБ

В этой теме нет новых непрочитанных сообщений. Близнецы (1945) SATRip от New-Team

43 | 6

1.09 ГБ

В этой теме нет новых непрочитанных сообщений. Близнецы (1945) SATRip-AVC от New-Team

33 | 6

1.09 ГБ




Вы не можете начинать темы
Вы не можете отвечать на сообщения
Вы не можете редактировать свои сообщения
Вы не можете удалять свои сообщения
Вы не можете добавлять вложения

Перейти:  
Для Мосгорсуда, Роскомнадзора и рекламодателей: mosgorsud-torrent[собачка]yandex.ru
 Вход
ppkBB3cker v.2 © 2008-2014 @ PPK
[ Time : 0.045s | 17 Queries | GZIP : On ]

Торрент трекер RUTOR.IN, Не можете зайти на rutor.org? Какой новый адрес рутор? Какое зеркало рутор? Не работает rutor.org и зеркала? Тогда наш торрент специально для вас. Rutor.in неофициальное зеркало rutor. В случае если у Вас заблокирован rutor или вдруг Вы не можете на него зайти, то Вы без труда сможете скачать бесплатно и без рекламы последние новинки кино, игр, сериалов и прочего у нас, на Rutor.in. Не нужно использовать прокси, чтобы зайти на рутор, достаточно воспользоваться нашим ресурсом. Все новые фильмы, игры, сериалы, книги и музыка за 2013 и 2014 годы через торрент бесплатно. Скачивайте фильмы в хорошем качестве, игры для пк, xbox, playstation без регистрации. У нас вы найдете новые Зарубежные сериалы и Русские сериалы 2013, 2014, 2015 годов. Оставайтесь с нами, качайте любимые фильмы, игры, сериалы, книги и музыку.