img image001 image001 image001 image001 image001 image001 image001 image001 image001 image001 image001 image001 image001 image001 image001

Planets Sun Sun Sun
Статистика раздачи
Автор: Nickolas3434 | Размер: 245.63 МБ | Добавлен: 24 апр 2015
Раздают: 58    Качают: 7
Скачать торрент
Скачать торрент
Описание торрента

СообщениеДобавлено: 24 апр 2015 

Страна: СССР
Производство: Центральная студия документальных фильмов
Жанр: документальный, короткометражка
Год выпуска: 1945
Продолжительность: 00:18:22
Перевод: Не требуется
Cубтитры: нет
Оригинальная аудиодорожка: русский
Режиссер: Николай Соловьев
Описание:
22 июня 1945 года в центральных газетах был опубликован приказ Верховного главнокомандующего ВС СССР И. В. Сталина № 370:
В ознаменование победы над Германией в Великой Отечественной войне назначаю 24 июня 1945 года в Москве на Красной площади парад войск Действующей армии, Военно-Морского Флота и Московского гарнизона — Парад Победы.
На парад вывести: сводные полки фронтов, сводный полк наркомата обороны, сводный полк Военно-морского Флота, военные академии, военные училища и войска Московского гарнизона.
Парад Победы принять моему заместителю Маршалу Советского Союза Жукову.
Командовать Парадом Победы Маршалу Советского Союза Рокоссовскому.
Общее руководство по организации парада возлагаю на командующего войсками Московского военного округа и начальника гарнизона города Москвы генерал-полковника П. А. Артемьева.
Верховный Главнокомандующий,
Маршал Советского Союза И. Сталин





Источник: DVD5 R5
Качество видео: DVDRip
Формат видео: AVI
Видео: 688x512 (4:3), 25 fps, XviD ~ 1669 kbps avg, 0.189 bit/pixel
Аудио: 48 kHz, Dolby Digital AC3 2.0, 192 kbps
Раздача от:
Фильм снимали на цветную трофейную немецкую киноплёнку, «Agfa». Монтаж и озвучание производилось в Берлине, так как там было необходимое оборудование. По словам оператора Михаила Посельского, после того, как фильм был отснят, выяснилось, что большая часть ленты имеет брак по цвету. По этой причине весь фильм перевели на черно-белую плёнку, а из того материала который подходил по качеству, смонтировали 19-минутный фильм.
И. В. Сталин остался недоволен фильмом, так как в кадры не попали двое из десяти командующих фронтами — генералы армии Баграмян и Ерёменко (впоследствии Маршалы Советского Союза). Для того чтобы исправить оплошность, было решено доснять недостающие кадры. Однако задача осложнялась тем, что Баграмян со своим штабом находится в Риге, а генерал Ерёменко и его штаб — в Кракове. Две съёмочные группы срочно были направленны в Ригу — где находился Баграмян, и в Краков — где находился Ерёменко, где были сняты необходимые сцены, которые позже вмонтировали в окончательный вариант фильма[3]. Съёмка недостающих кадров была выполнена за чертой города. Для того чтобы скрыть отсутствующий ГУМ, генералов сняли на фоне красных знамён. Генералов сначала сняли на цветную плёнку, потом камеру перезарядили и сняли эти же эпизоды на чёрно-белую плёнку.
В 1984 году была выпущена на киноэкраны «подправленная» версия чёрно-белого фильма, из которой были удалены часть наглядной агитации, части закадрового текста и куски выступления Г. К. Жукова, прославляющие Верховного Главнокомандующего Маршала И. В. Сталина. В 2004 году была восстановлена цветная версия фильма, реставрацию фильма произвёл Российский государственный архив кинофотодокументов. С плёнки убрали все механические повреждения, был восстановлен цвет, изображение перевели на современную цветную плёнку.

Общее
Полное имя : Parad.Pobedy.1945.DVDRip_[New-team]_by_AVP_Studio.avi
Формат : AVI
Формат/Информация : Audio Video Interleave
Размер файла : 246 Мбайт
Продолжительность : 18 м.
Общий поток : 1870 Кбит/сек
Программа кодирования : VirtualDubModRus 1.5.10.2 (build 2542/release)
Библиотека кодирования : VirtualDubMod build 2542/release
Видео
Идентификатор : 0
Формат : MPEG-4 Visual
Профиль формата : Advanced Simple@L5
Параметр BVOP формата : 1
Параметр QPel формата : Нет
Параметр GMC формата : Без точки перехода
Параметр матрицы формата : Выборочная
Идентификатор кодека : XVID
Идентификатор кодека/Подсказка : XviD
Продолжительность : 18 м.
Битрейт : 1669 Кбит/сек
Ширина : 688 пикселей
Высота : 512 пикселей
Соотношение сторон : 4:3
Частота кадров : 25,000 кадров/сек
Цветовое пространство : YUV
Субдискретизация насыщенности : 4:2:0
Битовая глубина : 8 бит
Тип развёртки : Прогрессивная
Метод сжатия : С потерями
Бит/(Пиксели*Кадры) : 0.189
Размер потока : 219 Мбайт (89%)
Библиотека кодирования : XviD 73
Аудио
Идентификатор : 1
Формат : AC-3
Формат/Информация : Audio Coding 3
Расширение режима : CM (complete main)
Параметр Endianness формата : Big
Идентификатор кодека : 2000
Продолжительность : 18 м.
Вид битрейта : Постоянный
Битрейт : 192 Кбит/сек
Каналы : 2 канала
Расположение каналов : Front: L R
Частота : 48,0 КГц
Битовая глубина : 16 бит
Метод сжатия : С потерями
Размер потока : 25,2 Мбайт (10%)
Выравнивание : Разделение по промежуткам
Продолжительность промежутка : 40 мс. (1,00 видеокадр)
Время предзагрузки промежутка : 500 мс





   Похожие торренты   Торрент   Размер 
В этой теме нет новых непрочитанных сообщений. Парад Победы (1945) DVDRip-AVC от New-Team

198 | 11

247.75 МБ

В этой теме нет новых непрочитанных сообщений. Парад Победы 24 июня 1945 года. Песни войны и победы (2005) DVDRip

316 | 3

930.86 МБ

В этой теме нет новых непрочитанных сообщений. Парад победы 1945 года (1945) DVDRip | Цветной

381 | 5

698.73 МБ

В этой теме нет новых непрочитанных сообщений. Парад Победы (1945) DVDRip

0 | 4

682.65 МБ

В этой теме нет новых непрочитанных сообщений. Парад Победы 24 июня 1945 года. Песни войны и победы (2005) DVD5

55 | 3

4.05 ГБ

В этой теме нет новых непрочитанных сообщений. Парад победы 1945 года (1945) IPTVRip | Цветной

18 | 2

199.52 МБ

В этой теме нет новых непрочитанных сообщений. Парад победы 1945 г. (2000) DVDRip | Цветной

0 | 2

297.08 МБ




Вы не можете начинать темы
Вы не можете отвечать на сообщения
Вы не можете редактировать свои сообщения
Вы не можете удалять свои сообщения
Вы не можете добавлять вложения

Перейти:  
Для Мосгорсуда, Роскомнадзора и рекламодателей: mosgorsud-torrent[собачка]yandex.ru
 Вход
ppkBB3cker v.2 © 2008-2014 @ PPK
[ Time : 0.022s | 15 Queries | GZIP : On ]

Торрент трекер RUTOR.IN, Не можете зайти на rutor.org? Какой новый адрес рутор? Какое зеркало рутор? Не работает rutor.org и зеркала? Тогда наш торрент специально для вас. Rutor.in неофициальное зеркало rutor. В случае если у Вас заблокирован rutor или вдруг Вы не можете на него зайти, то Вы без труда сможете скачать бесплатно и без рекламы последние новинки кино, игр, сериалов и прочего у нас, на Rutor.in. Не нужно использовать прокси, чтобы зайти на рутор, достаточно воспользоваться нашим ресурсом. Все новые фильмы, игры, сериалы, книги и музыка за 2013 и 2014 годы через торрент бесплатно. Скачивайте фильмы в хорошем качестве, игры для пк, xbox, playstation без регистрации. У нас вы найдете новые Зарубежные сериалы и Русские сериалы 2013, 2014, 2015 годов. Оставайтесь с нами, качайте любимые фильмы, игры, сериалы, книги и музыку.