img image001 image001 image001 image001 image001 image001 image001 image001 image001 image001 image001 image001 image001 image001 image001

Planets Sun Sun Sun
Статистика раздачи
Автор: Nickolas3434 | Размер: 744.17 МБ | Добавлен: 24 апр 2015
Раздают: 120    Качают: 5
Скачать торрент
Скачать торрент
Описание торрента

СообщениеДобавлено: 24 апр 2015 

Страна: Россия
Производство: Информационно-издательское агенство ЛИК
Жанр: киноконцерт
Год выпуска: 2005
Продолжительность: 00:48:08
Перевод: Не требуется
Cубтитры: нет
Оригинальная аудиодорожка: русский
Режиссер: Владимир Беляев, Ирина Венжер, Иосиф Посельский
В ролях:
Марина Ладынина, Марк Бернес, Леонид Утёсов, Клавдия Шульженко, Николай Крючков, Василий Меркурьев, Василий Нещипленко, ансамбль им. Александрова....
Описание:
Киноконцерт из собраний Госфильмофонда и Гостелерадиофонда. Тут и Синий Платочек, Где Же Вы Друзья Однополчане, Тёмная Ночь, Потому Что Мы Пилоты, Давай Закурим и другие песни...






Источник: DVD5 R5
Качество видео: DVDRip-AVC
Формат видео: MKV
Видео: 688->758x568 (4:3), 25 fps, H264 ~ 1968 kbps avg, 0.201 bit/pixel
Аудио: 48 kHz, Dolby Digital AC3 2.0, 192 kbps
Раздача от:
Общее
Полное имя : Pesni.voyny.i.pobedy.2005.DVDRip-AVC_[New-team]_by_AVP_Studio.mkv
Формат : Matroska
Версия формата : Version 2
Размер файла : 744 Мбайт
Продолжительность : 48 м.
Общий поток : 2161 Кбит/сек
Дата кодирования : UTC 2015-04-23 11:55:11
Программа кодирования : mkvmerge v6.1.0 ('Old Devil') built on Mar 4 2013 09:10:42
Библиотека кодирования : libebml v1.3.0 + libmatroska v1.4.0
Видео
Идентификатор : 1
Формат : AVC
Формат/Информация : Advanced Video Codec
Профиль формата : High@L4.1
Параметр CABAC формата : Да
Параметр ReFrames формата : 8 кадров
Идентификатор кодека : V_MPEG4/ISO/AVC
Продолжительность : 48 м.
Битрейт : 1968 Кбит/сек
Ширина : 688 пикселей
Высота : 568 пикселей
Соотношение сторон : 4:3
Режим частоты кадров : Постоянный
Частота кадров : 25,000 кадров/сек
Цветовое пространство : YUV
Субдискретизация насыщенности : 4:2:0
Битовая глубина : 8 бит
Тип развёртки : Прогрессивная
Бит/(Пиксели*Кадры) : 0.201
Размер потока : 663 Мбайт (89%)
Библиотека кодирования : x264 core 138 r2356 a1d3d17
Настройки программы : cabac=1 / ref=8 / deblock=1:-2:-1 / analyse=0x3:0x113 / me=umh / subme=10 / psy=1 / psy_rd=1.00:0.05 / mixed_ref=1 / me_range=32 / chroma_me=1 / trellis=2 / 8x8dct=1 / cqm=0 / deadzone=21,11 / fast_pskip=0 / chroma_qp_offset=-3 / threads=6 / lookahead_threads=1 / sliced_threads=0 / nr=0 / decimate=0 / interlaced=0 / bluray_compat=0 / constrained_intra=0 / bframes=8 / b_pyramid=2 / b_adapt=2 / b_bias=0 / direct=3 / weightb=1 / open_gop=0 / weightp=2 / keyint=250 / keyint_min=25 / scenecut=40 / intra_refresh=0 / rc=2pass / mbtree=0 / bitrate=1968 / ratetol=1.0 / qcomp=0.60 / qpmin=0 / qpmax=69 / qpstep=4 / cplxblur=20.0 / qblur=0.5 / ip_ratio=1.40 / pb_ratio=1.30 / aq=1:1.00
Default : Да
Forced : Нет
Аудио
Идентификатор : 2
Формат : AC-3
Формат/Информация : Audio Coding 3
Расширение режима : CM (complete main)
Параметр Endianness формата : Big
Идентификатор кодека : A_AC3
Продолжительность : 48 м.
Вид битрейта : Постоянный
Битрейт : 192 Кбит/сек
Каналы : 2 канала
Расположение каналов : Front: L R
Частота : 48,0 КГц
Битовая глубина : 16 бит
Метод сжатия : С потерями
Размер потока : 66,1 Мбайт (9%)
Default : Да
Forced : Нет





   Похожие торренты   Торрент   Размер 
В этой теме нет новых непрочитанных сообщений. Песни войны и Победы (2005) DVDRip от New-Team

75 | 5

743.37 МБ

В этой теме нет новых непрочитанных сообщений. Парад Победы 24 июня 1945 года. Песни войны и победы (2005) DVDRip

316 | 3

930.86 МБ

В этой теме нет новых непрочитанных сообщений. Парад Победы 24 июня 1945 года. Песни войны и победы (2005) DVD5

55 | 3

4.05 ГБ

В этой теме нет новых непрочитанных сообщений. А. Ф. Шклярук - Плакаты войны и победы 1941-1945 (2005) PDF

104 | 8

65.64 МБ

В этой теме нет новых непрочитанных сообщений. VA - Песни военных лет - 'Дорогой ПОБЕДЫ' (2004) MP3

53 | 2

228.33 МБ

В этой теме нет новых непрочитанных сообщений. Песни Великой Победы - Антология (1939-1968) MP3

71 | 8

1.66 ГБ

В этой теме нет новых непрочитанных сообщений. Сборник - Песни ко Дню Победы в Современной Обработке (от Наджима) (2012) MP3

495 | 20

311.84 МБ




Вы не можете начинать темы
Вы не можете отвечать на сообщения
Вы не можете редактировать свои сообщения
Вы не можете удалять свои сообщения
Вы не можете добавлять вложения

Перейти:  
Для Мосгорсуда, Роскомнадзора и рекламодателей: mosgorsud-torrent[собачка]yandex.ru
 Вход
ppkBB3cker v.2 © 2008-2014 @ PPK
[ Time : 0.028s | 16 Queries | GZIP : Off ]

Торрент трекер RUTOR.IN, Не можете зайти на rutor.org? Какой новый адрес рутор? Какое зеркало рутор? Не работает rutor.org и зеркала? Тогда наш торрент специально для вас. Rutor.in неофициальное зеркало rutor. В случае если у Вас заблокирован rutor или вдруг Вы не можете на него зайти, то Вы без труда сможете скачать бесплатно и без рекламы последние новинки кино, игр, сериалов и прочего у нас, на Rutor.in. Не нужно использовать прокси, чтобы зайти на рутор, достаточно воспользоваться нашим ресурсом. Все новые фильмы, игры, сериалы, книги и музыка за 2013 и 2014 годы через торрент бесплатно. Скачивайте фильмы в хорошем качестве, игры для пк, xbox, playstation без регистрации. У нас вы найдете новые Зарубежные сериалы и Русские сериалы 2013, 2014, 2015 годов. Оставайтесь с нами, качайте любимые фильмы, игры, сериалы, книги и музыку.