img image001 image001 image001 image001 image001 image001 image001 image001 image001 image001 image001 image001 image001 image001 image001

Planets Sun Sun Sun
Статистика раздачи
Автор: Nickolas3434 | Размер: 1.04 ГБ | Добавлен: 25 апр 2015
Раздают: 667    Качают: 19
Скачать торрент
Скачать торрент
Описание торрента

СообщениеДобавлено: 25 апр 2015 


Информация о фильме
Название: Неуловимые
Оригинальное название: Неуловимые
Год выхода: 2015
Жанр: приключения, комедия, криминал
Режиссер: Артем Аксененко
В ролях: Александра Бортич, Иван Шахназаров, Илья Маланин, Анвар Халилулаев, Денис Шведов, Евгений Мундум, Джемал Тетруашвили, Ксения Баскакова, Павел Юлку, Александр Сазонов
О фильме: Ночью в центре Москвы сбита девушка, ей срочно нужна сложнейшая операция. Ее подруга Кира находит виновника, наглого и циничного олигарха Сергея Полянского, который отказывается признать свою вину и помочь пострадавшей. Ему плевать, у него все схвачено. В отчаянии Кира обращается за помощью к трем парням симпатизирующим ей — быковатому Феде, самоуверенному красавчику Артему и компьютерному гению Жене. Парни заключают между собой пакт — «поможем девушке, накажем негодяя, а потом решим, кто станет ее парнем».

Выпущено: Россия
Продолжительность: 01:29:40
Озвучивание: Оригинальное
Файл
Формат: MKV
Качество: WEB-DLRip-AVC
Видео: ~1500 kb/s, 720x392
Звук: AC3, 192 kb/s (2 ch)
General
Unique ID : 109386192666787569837775350612017673447 (0x524B03AF73ECD88BFB593B01AC45F4E7)
Complete name : F:Неуловимые.2015.O.WEB-DLRIP_AVC.[-=DoMiNo=-].mkv
Format : Matroska
Format version : Version 4 / Version 2
File size : 1.04 GiB
Duration : 1h 26mn
Overall bit rate : 1 723 Kbps
Writing application : XviD4PSP 7.0.124
Writing library : Lavf56.15.102
Video
ID : 1
Format : AVC
Format/Info : Advanced Video Codec
Format profile : High@L4.1
Format settings, CABAC : Yes
Format settings, ReFrames : 12 frames
Codec ID : V_MPEG4/ISO/AVC
Duration : 1h 26mn
Bit rate : 1 497 Kbps
Width : 720 pixels
Height : 392 pixels
Display aspect ratio : 1.85:1
Frame rate mode : Constant
Frame rate : 25.000 fps
Color space : YUV
Chroma subsampling : 4:2:0
Bit depth : 8 bits
Scan type : Progressive
Bits/(Pixel*Frame) : 0.212
Stream size : 922 MiB (87%)
Writing library : x264 core 146 r2538M 121396c
Encoding settings : cabac=1 / ref=12 / deblock=1:-3:-3 / analyse=0x3:0x133 / me=umh / subme=11 / psy=1 / psy_rd=1,00:0,10 / mixed_ref=1 / me_range=32 / chroma_me=1 / trellis=2 / 8x8dct=1 / cqm=0 / deadzone=21,11 / fast_pskip=0 / chroma_qp_offset=-3 / threads=12 / lookahead_threads=3 / sliced_threads=0 / nr=0 / decimate=1 / interlaced=0 / bluray_compat=0 / constrained_intra=0 / bframes=11 / b_pyramid=2 / b_adapt=2 / b_bias=0 / direct=1 / weightb=1 / open_gop=0 / weightp=2 / keyint=250 / keyint_min=25 / scenecut=40 / intra_refresh=0 / rc=crf / mbtree=0 / crf=18,0 / qcomp=0,60 / qpmin=10 / qpmax=69 / qpstep=4 / ip_ratio=1,40 / pb_ratio=1,30 / aq=1:1,00
Default : Yes
Forced : No
Color range : Limited
Color primaries : BT.709
Transfer characteristics : BT.709
Matrix coefficients : BT.709
Audio
ID : 2
Format : AC-3
Format/Info : Audio Coding 3
Mode extension : CM (complete main)
Format settings, Endianness : Big
Codec ID : A_AC3
Duration : 1h 26mn
Bit rate mode : Constant
Bit rate : 192 Kbps
Channel(s) : 2 channels
Channel positions : Front: L R
Sampling rate : 44.1 KHz
Bit depth : 32 bits
Compression mode : Lossy
Delay relative to video : 29ms
Stream size : 118 MiB (11%)
Default : Yes
Forced : No








   Похожие торренты   Торрент   Размер 
В этой теме нет новых непрочитанных сообщений. Неуловимые / Неуловимые (2015) WEB-DLRip

590 | 27

701.47 МБ

В этой теме нет новых непрочитанных сообщений. Неуловимые (2015) WEB-DLRip

11381 | 588

1.37 ГБ

В этой теме нет новых непрочитанных сообщений. Неуловимые: Последний герой (2015) WEB-DLRip

12628 | 392

1.37 ГБ

В этой теме нет новых непрочитанных сообщений. Неуловимые: Последний герой (2015) WEB-DLRip

160 | 2

1.35 ГБ

В этой теме нет новых непрочитанных сообщений. Неуловимые (2015) WEB-DLRip от Scarabey | iTunes

1397 | 64

1.45 ГБ

В этой теме нет новых непрочитанных сообщений. Неуловимые (2015) WEB-DLRip от Scarabey | iTunes

393 | 17

744.97 МБ

В этой теме нет новых непрочитанных сообщений. Неуловимые: Последний герой (2015) WEB-DLRip | iTunes

1355 | 89

1.37 ГБ




Вы не можете начинать темы
Вы не можете отвечать на сообщения
Вы не можете редактировать свои сообщения
Вы не можете удалять свои сообщения
Вы не можете добавлять вложения

Перейти:  
Для Мосгорсуда, Роскомнадзора и рекламодателей: mosgorsud-torrent[собачка]yandex.ru
 Вход
ppkBB3cker v.2 © 2008-2014 @ PPK
[ Time : 0.039s | 16 Queries | GZIP : Off ]

cron