img image001 image001 image001 image001 image001 image001 image001 image001 image001 image001 image001 image001 image001 image001 image001

Planets Sun Sun Sun
Статистика раздачи
Автор: Nickolas3434 | Размер: 745.83 МБ | Добавлен: 26 апр 2015
Раздают: 41    Качают: 8
Скачать торрент
Скачать торрент
Описание торрента

СообщениеДобавлено: 26 апр 2015 


Информация о фильме
Название: Паспорт
Год выхода: 1990
Жанр: Драма, Трагикомедия
Режиссер: Георгий Данелия
В ролях: Жерар Дармон, Олег Янковский, Армен Джигарханян, Евгений Леонов, Леонид Ярмольник, Мамука Кикалейшвили, Наталья Гундарева, Игорь Кваша, Александр Берда, Леван Пилпани, Яаков Бен-Сира, Шарон Акоэн Брандон, Нуца Когуашвили, Ким Салливан
О фильме: Братья Папашвили, приехав в аэропорт, откуда один из них должен улететь в Израиль, захотели выпить шампанское. Захотели и выпили. И поэтому улетел не хормейстер детского хора Яков, а очень похожий на него брат - таксист Мераб. О его мытарствах-приключениях, выходящих за всякие пределы воображения, и рассказывает эта комедия с грустинкой. Евреи его принимают за агента КГБ, работники советского торгпредства за провокатора, а вернуться домой официально он не может...
Доп.информация: Полная реставрация изображения и звука. Покадровая цифровая реставрация изображения, ремастеринг звука и авторинг проведены объединением "Крупный план". Роль Мераба и Яши (Жерар Дармон) дублировал Мурман Джинория, роль дяди Инги (Яаков Бен-Сира) дублировал Геннадий Хазанов

Страна: СССР / Франция / Австрия
Студия: Мосфильм / Госкино / Ритм / Passport Production
Продолжительность: 01:41:45
Перевод: Не требуется (оригинальный)
Файл
Формат: avi
Качество: BDRip (Blu-ray)
Видео: XviD, 656х368, 23.976fps, 887kbps
Аудио: MPEG Layer 3, 2ch, 48000Hz, 128kbps

General
Complete name : Pasport.1990.O.BDRip.700.MediaClub.CurHaJI.avi
Format : AVI
Format/Info : Audio Video Interleave
File size : 746 MiB
Duration : 1h 41mn
Overall bit rate : 1 025 Kbps
Movie name : Pasport.1990.O.BDRip.700.MediaClub.CurHaJI
Writing application : Lavf53.13.0
Writing library : VirtualDub build 35491/release
Video
ID : 0
Format : MPEG-4 Visual
Format profile : Advanced Simple@L5
Format settings, BVOP : 1
Format settings, QPel : No
Format settings, GMC : No warppoints
Format settings, Matrix : Custom
Codec ID : XVID
Codec ID/Hint : XviD
Duration : 1h 41mn
Bit rate : 887 Kbps
Width : 656 pixels
Height : 368 pixels
Display aspect ratio : 16:9
Frame rate : 23.976 fps
Color space : YUV
Chroma subsampling : 4:2:0
Bit depth : 8 bits
Scan type : Progressive
Compression mode : Lossy
Bits/(Pixel*Frame) : 0.153
Stream size : 646 MiB (87%)
Writing library : XviD 1.2.1 (UTC 2008-12-04)
Audio
ID : 1
Format : MPEG Audio
Format version : Version 1
Format profile : Layer 3
Codec ID : 55
Codec ID/Hint : MP3
Duration : 1h 41mn
Bit rate mode : Constant
Bit rate : 128 Kbps
Channel(s) : 2 channels
Sampling rate : 48.0 KHz
Compression mode : Lossy
Stream size : 93.1 MiB (12%)
Alignment : Split accross interleaves
Interleave, duration : 42 ms (1.00 video frame)
Interleave, preload duration : 500 ms
Writing library : L3.99r
Encoding settings : -m s -V 4 -q 2 -lowpass 17 -b 128



Релиз от:



   Похожие торренты   Торрент   Размер 
В этой теме нет новых непрочитанных сообщений. Паспорт (1990) BDRip от MediaClub

152 | 20

2.03 ГБ

В этой теме нет новых непрочитанных сообщений. Паспорт (1990) BDRip-AVC от MediaClub

21 | 3

2.81 ГБ

В этой теме нет новых непрочитанных сообщений. Паспорт (1990) BDRip 720p от MediaClub

24 | 10

5.15 ГБ

В этой теме нет новых непрочитанных сообщений. Паспорт (1990) BDRip

69 | 6

745.83 МБ

В этой теме нет новых непрочитанных сообщений. Паспорт (1990) BDRip 1080p

15 | 4

7.95 ГБ

В этой теме нет новых непрочитанных сообщений. Паспорт (1990) Blu-Ray 1080p

2 | 2

22 ГБ

В этой теме нет новых непрочитанных сообщений. Паспорт (1990) DVDRip

16 | 3

1.37 ГБ




Вы не можете начинать темы
Вы не можете отвечать на сообщения
Вы не можете редактировать свои сообщения
Вы не можете удалять свои сообщения
Вы не можете добавлять вложения

Перейти:  
Для Мосгорсуда, Роскомнадзора и рекламодателей: mosgorsud-torrent[собачка]yandex.ru
 Вход
ppkBB3cker v.2 © 2008-2014 @ PPK
[ Time : 0.040s | 15 Queries | GZIP : Off ]

Торрент трекер RUTOR.IN, Не можете зайти на rutor.org? Какой новый адрес рутор? Какое зеркало рутор? Не работает rutor.org и зеркала? Тогда наш торрент специально для вас. Rutor.in неофициальное зеркало rutor. В случае если у Вас заблокирован rutor или вдруг Вы не можете на него зайти, то Вы без труда сможете скачать бесплатно и без рекламы последние новинки кино, игр, сериалов и прочего у нас, на Rutor.in. Не нужно использовать прокси, чтобы зайти на рутор, достаточно воспользоваться нашим ресурсом. Все новые фильмы, игры, сериалы, книги и музыка за 2013 и 2014 годы через торрент бесплатно. Скачивайте фильмы в хорошем качестве, игры для пк, xbox, playstation без регистрации. У нас вы найдете новые Зарубежные сериалы и Русские сериалы 2013, 2014, 2015 годов. Оставайтесь с нами, качайте любимые фильмы, игры, сериалы, книги и музыку.