img image001 image001 image001 image001 image001 image001 image001 image001 image001 image001 image001 image001 image001 image001 image001

Planets Sun Sun Sun
Статистика раздачи
Автор: Nickolas3434 | Размер: 827.69 МБ | Добавлен: 25 апр 2015
Раздают: 97    Качают: 6
Скачать торрент
Скачать торрент
Описание торрента

СообщениеДобавлено: 25 апр 2015 


Информация о фильме
Название: Ч/Б
Оригинальное название: Ч/Б
Год выхода: 2015
Жанр: комедия, криминал, фантастика
Режиссер: Евгений Шелякин
В ролях: Алексей Чадов, Мераб Нинидзе, Сергей Маковецкий, Гурам Баблишвили, Бесо Гатаев, Кахи Кавсадзе, Екатерина Редникова, Мария Андреева, Мария Звонарева, Андрей Руденский
О фильме:
Наши дни. Опасного авторитета-интеллектуала Алхана одновременно решают ограбить обманутый им Ярослав и мелкий жулик Нурик. По случайности во время их столкновения Нурик погибает, но возвращается в мир с миссией: быть ангелом-хранителем Ярослава. Вот только Ярослав при этом страдает «аллергией на Кавказ». Мистическим образом скованные вместе, эти двое вынуждены искать общий язык и спасаться от жаждущего расправы Алхана с его подручными.

Выпущено: Россия
Продолжительность: 01:29:04
Озвучивание: Оригинальное [iTunes]
Файл
Формат: MKV
Качество: WEB-DLRip-AVC
Видео: ~900 kb/s, 720x300
Аудио: AC3, 384 kb/s (6 ch)
General
Unique ID : 210469456088678715308944388023012907648 (0x9E56F15A6C7FD1E71DAA2BAD95015A80)
Complete name : F:Ч.Б.2015.O.WEB-DLRIP_AVC.[-=DoMiNo=-].mkv
Format : Matroska
Format version : Version 4 / Version 2
File size : 828 MiB
Duration : 1h 29mn
Overall bit rate : 1 299 Kbps
Writing application : XviD4PSP 7.0.124
Writing library : Lavf56.15.102
Video
ID : 1
Format : AVC
Format/Info : Advanced Video Codec
Format profile : High@L4.1
Format settings, CABAC : Yes
Format settings, ReFrames : 12 frames
Codec ID : V_MPEG4/ISO/AVC
Duration : 1h 29mn
Bit rate : 889 Kbps
Width : 720 pixels
Height : 300 pixels
Display aspect ratio : 2.40:1
Original display aspect rat : 2.40:1
Frame rate mode : Constant
Frame rate : 25.000 fps
Color space : YUV
Chroma subsampling : 4:2:0
Bit depth : 8 bits
Scan type : Progressive
Bits/(Pixel*Frame) : 0.165
Stream size : 567 MiB (68%)
Writing library : x264 core 146 r2538M 121396c
Encoding settings : cabac=1 / ref=12 / deblock=1:-3:-3 / analyse=0x3:0x133 / me=umh / subme=11 / psy=1 / psy_rd=1,00:0,10 / mixed_ref=1 / me_range=32 / chroma_me=1 / trellis=2 / 8x8dct=1 / cqm=0 / deadzone=21,11 / fast_pskip=0 / chroma_qp_offset=-3 / threads=12 / lookahead_threads=2 / sliced_threads=0 / nr=0 / decimate=1 / interlaced=0 / bluray_compat=0 / constrained_intra=0 / bframes=11 / b_pyramid=2 / b_adapt=2 / b_bias=0 / direct=1 / weightb=1 / open_gop=0 / weightp=2 / keyint=250 / keyint_min=25 / scenecut=40 / intra_refresh=0 / rc=crf / mbtree=0 / crf=18,0 / qcomp=0,60 / qpmin=10 / qpmax=69 / qpstep=4 / ip_ratio=1,40 / pb_ratio=1,30 / aq=1:1,00
Language : English
Default : Yes
Forced : No
Color range : Limited
Color primaries : BT.709
Transfer characteristics : BT.709
Matrix coefficients : BT.709
Audio
ID : 2
Format : AC-3
Format/Info : Audio Coding 3
Mode extension : CM (complete main)
Format settings, Endianness : Big
Codec ID : A_AC3
Duration : 1h 29mn
Bit rate mode : Constant
Bit rate : 384 Kbps
Channel(s) : 6 channels
Channel positions : Front: L C R, Side: L R, LFE
Sampling rate : 48.0 KHz
Bit depth : 32 bits
Compression mode : Lossy
Stream size : 245 MiB (30%)
Language : Russian
Default : Yes
Forced : No
Menu
00:00:00.000 : :Глава 1
00:01:34.000 : :Глава 2
00:04:55.000 : :Глава 3
00:08:54.000 : :Глава 4
00:13:33.000 : :Глава 5
00:18:07.000 : :Глава 6
00:22:26.000 : :Глава 7
00:28:06.000 : :Глава 8
00:33:28.000 : :Глава 9
00:37:56.000 : :Глава 10
00:44:28.000 : :Глава 11
00:49:31.000 : :Глава 12
00:55:14.000 : :Глава 13
00:59:56.000 : :Глава 14
01:06:03.000 : :Глава 15
01:09:47.000 : :Глава 16
01:15:40.000 : :Глава 17
01:21:19.000 : :Глава 18








   Похожие торренты   Торрент   Размер 
В этой теме нет новых непрочитанных сообщений. 14+ (2015) WEB-DLRip | iTunes

686 | 115

1.37 ГБ

В этой теме нет новых непрочитанных сообщений. Ч/Б (2015) WEB-DLRip | iTunes

314 | 12

701.11 МБ

В этой теме нет новых непрочитанных сообщений. Ч/Б (2015) WEB-DLRip | iTunes

5119 | 189

1.37 ГБ

В этой теме нет новых непрочитанных сообщений. 14+ (2015) WEB-DLRip-AVC от Scarabey | iTunes

488 | 27

2.17 ГБ

В этой теме нет новых непрочитанных сообщений. Ч/Б (2015) WEB-DLRip-AVC от ExKinoRay | iTunes

224 | 11

744.76 МБ

В этой теме нет новых непрочитанных сообщений. Территория (2015) WEB-DLRip-AVC | iTunes

330 | 2

1.78 ГБ

В этой теме нет новых непрочитанных сообщений. 14+ (2015) WEB-DLRip 1080p | iTunes

864 | 23

4.07 ГБ




Вы не можете начинать темы
Вы не можете отвечать на сообщения
Вы не можете редактировать свои сообщения
Вы не можете удалять свои сообщения
Вы не можете добавлять вложения

Перейти:  
Для Мосгорсуда, Роскомнадзора и рекламодателей: mosgorsud-torrent[собачка]yandex.ru
 Вход
ppkBB3cker v.2 © 2008-2014 @ PPK
[ Time : 0.020s | 15 Queries | GZIP : Off ]

cron