img image001 image001 image001 image001 image001 image001 image001 image001 image001 image001 image001 image001 image001 image001 image001

Planets Sun Sun Sun
Статистика раздачи
Автор: Nickolas3434 | Размер: 11.54 ГБ | Добавлен: 26 апр 2015
Раздают: 955    Качают: 48
Скачать торрент
Скачать торрент
Описание торрента

СообщениеДобавлено: 26 апр 2015 

ДухLess (2012)

Информация о фильме
Название: ДухLess
Год выхода: 2012
Жанр: драма
Режиссер: Роман Прыгунов
В ролях: Данила Козловский, Мария Андреева, Артем Михалков, Никита Панфилов, Артур Смольянинов, Михаил Ефремов, Мария Кожевникова, Сергей Белоголовцев, Саша Бурдо, Дмитрий Дорохов
О фильме: Главный герой фильма — 29-летний топ-менеджер крупного международного банка по имени Макс. Он уверен, что жизнь удалась, ведь у него есть то, о чём многие не могут даже и мечтать: дорогая машина, пентхаус и вечеринки. Свою жизнь Максим тратит на зарабатывание денег, а деньги — на ночные клубы, шикарных девушек, кокаин и прочие атрибуты гламурной жизни. Но в какой-то момент к герою приходит осознание того, что с его жизнью что-то не так. И его мир рушится подобно карточному домику.

Выпущено: Universal Pictures
Продолжительность: 01:45:24
Перевод: Оригинал
Файл
Кодек: x264
Качество: BDRip (источник: Blu-ray Disc)
Видео: 1920x816 (2,35:1), 24.000 fps (True24p), 7385 kbps
Аудио #1: AC-3, 6 ch, 448 kbps (Rus)
Субтитры: Нет
Скачать: сэмпл
Скриншоты

General
Unique ID : 231361592215490539224119020313214253948 (0xAE0E9F311885437598239D615690FB7C)
Complete name : D:Dukhless.Dilogy.2012-2015.BDRip.1080p.RusDukhless.2012.BDRip.1080p.Rus.mkv
Format : Matroska
Format version : Version 2
File size : 5.77 GiB
Duration : 1h 45mn
Overall bit rate : 7 831 Kbps
Movie name : ДухLess / Dukhless (2012)
Encoded date : UTC 2015-04-25 17:00:02
Writing application : mkvmerge v5.8.0 ('No Sleep / Pillow') built on Sep 2 2012 15:37:04
Writing library : libebml v1.2.3 + libmatroska v1.3.0
Attachements : cover.png / logfile.log
Video
ID : 1
Format : AVC
Format/Info : Advanced Video Codec
Format profile : High@L4.1
Format settings, CABAC : Yes
Format settings, ReFrames : 5 frames
Codec ID : V_MPEG4/ISO/AVC
Duration : 1h 45mn
Bit rate : 7 384 Kbps
Width : 1 920 pixels
Height : 816 pixels
Display aspect ratio : 2.35:1
Frame rate mode : Constant
Frame rate : 24.000 fps
Color space : YUV
Chroma subsampling : 4:2:0
Bit depth : 8 bits
Scan type : Progressive
Bits/(Pixel*Frame) : 0.196
Stream size : 5.32 GiB (92%)
Title : ДухLess / Dukhless (2012)
Writing library : x264 core 146 r2538 121396c
Encoding settings : cabac=1 / ref=5 / deblock=1:-3:-3 / analyse=0x3:0x133 / me=umh / subme=11 / psy=1 / psy_rd=1.00:0.00 / mixed_ref=1 / me_range=32 / chroma_me=1 / trellis=2 / 8x8dct=1 / cqm=0 / deadzone=21,11 / fast_pskip=0 / chroma_qp_offset=-2 / threads=12 / lookahead_threads=3 / sliced_threads=0 / nr=0 / decimate=0 / interlaced=0 / bluray_compat=0 / constrained_intra=0 / bframes=10 / b_pyramid=2 / b_adapt=2 / b_bias=0 / direct=3 / weightb=1 / open_gop=0 / weightp=2 / keyint=240 / keyint_min=24 / scenecut=40 / intra_refresh=0 / rc=2pass / mbtree=0 / bitrate=7384 / ratetol=1.0 / qcomp=0.60 / qpmin=0 / qpmax=69 / qpstep=4 / cplxblur=20.0 / qblur=0.5 / ip_ratio=1.40 / pb_ratio=1.30 / aq=1:1.00
Language : Russian
Default : Yes
Forced : No
Audio
ID : 2
Format : AC-3
Format/Info : Audio Coding 3
Mode extension : CM (complete main)
Format settings, Endianness : Big
Codec ID : A_AC3
Duration : 1h 45mn
Bit rate mode : Constant
Bit rate : 448 Kbps
Channel(s) : 6 channels
Channel positions : Front: L C R, Side: L R, LFE
Sampling rate : 48.0 KHz
Bit depth : 16 bits
Compression mode : Lossy
Stream size : 338 MiB (6%)
Title : Russian
Language : Russian
Default : Yes
Forced : No
Menu
00:00:00.000 : :Chapter 01
00:10:16.666 : :Chapter 02
00:21:17.750 : :Chapter 03
00:38:58.500 : :Chapter 04
00:52:55.250 : :Chapter 05
01:04:04.208 : :Chapter 06
01:19:12.708 : :Chapter 07
01:28:17.083 : :Chapter 08
x264 [info]: frame I:934 Avg QP:18.19 size:142534
x264 [info]: frame P:35929 Avg QP:20.74 size: 57466
x264 [info]: frame B:114929 Avg QP:23.06 size: 31643
x264 [info]: consecutive B-frames: 3.5% 5.1% 10.7% 16.8% 10.8% 39.8% 6.0% 0.7% 3.5% 0.9% 2.2%

ДухLess 2 (2015)

Информация о фильме
Название: ДухLess 2
Год выхода: 2015
Жанр: драма
Режиссер: Роман Прыгунов
В ролях: Данила Козловский, Мария Андреева, Милош Бикович, Павел Ворожцов, Александра Бортич, Кристина Бабушкина, Сергей Бурунов, Лев Прыгунов, Владимир Симонов, Доминик Пинон
О фильме: Он отказался от всего, что так когда-то ценил — светской жизни, успешной карьеры, роскошного пентхауса. Теперь его стихия — океан. Каждый день он рассекает на серфе теплые волны, омывающие остров Бали. Но невозможно забыть ритм большого города. Случайное знакомство возвращает его в самое сердце современной столицы — высокие технологии, сумасшедшие сделки, смертельный риск и прежняя любовь, которая больше не с ним.

Выпущено: Universal Pictures
Продолжительность: 01:51:31
Перевод: Оригинал
Файл
Кодек: x264
Качество: BDRip (источник: Blu-ray Disc)
Видео: 1920x808 (2,40:1), 24.000 fps (True24p), 6955 kbps
Аудио #1: AC-3, 6 ch, 448 kbps (Rus)
Субтитры: Нет
Скачать: сэмпл
Скриншоты

General
Unique ID : 237080270385774545880084529575734642022 (0xB25BFFCB4E166A67AC8D5F0F0F0D8566)
Complete name : D:Dukhless.Dilogy.2012-2015.BDRip.1080p.RusDukhless.2.2015.BDRip.1080p.Rus.mkv
Format : Matroska
Format version : Version 2
File size : 5.77 GiB
Duration : 1h 51mn
Overall bit rate : 7 406 Kbps
Movie name : ДухLess 2 / Dukhless 2 (2015)
Encoded date : UTC 2015-04-19 18:02:52
Writing application : mkvmerge v5.8.0 ('No Sleep / Pillow') built on Sep 2 2012 15:37:04
Writing library : libebml v1.2.3 + libmatroska v1.3.0
Attachements : cover.png / logfile.log
Video
ID : 1
Format : AVC
Format/Info : Advanced Video Codec
Format profile : High@L4.1
Format settings, CABAC : Yes
Format settings, ReFrames : 5 frames
Codec ID : V_MPEG4/ISO/AVC
Duration : 1h 51mn
Bit rate : 6 956 Kbps
Width : 1 920 pixels
Height : 808 pixels
Display aspect ratio : 2.40:1
Frame rate mode : Constant
Frame rate : 24.000 fps
Color space : YUV
Chroma subsampling : 4:2:0
Bit depth : 8 bits
Scan type : Progressive
Bits/(Pixel*Frame) : 0.187
Stream size : 5.31 GiB (92%)
Title : ДухLess 2 / Dukhless 2 (2015)
Writing library : x264 core 146 r2538 121396c
Encoding settings : cabac=1 / ref=5 / deblock=1:-3:-3 / analyse=0x3:0x133 / me=umh / subme=11 / psy=1 / psy_rd=1.00:0.00 / mixed_ref=1 / me_range=32 / chroma_me=1 / trellis=2 / 8x8dct=1 / cqm=0 / deadzone=21,11 / fast_pskip=0 / chroma_qp_offset=-2 / threads=12 / lookahead_threads=3 / sliced_threads=0 / nr=0 / decimate=0 / interlaced=0 / bluray_compat=0 / constrained_intra=0 / bframes=10 / b_pyramid=2 / b_adapt=2 / b_bias=0 / direct=3 / weightb=1 / open_gop=0 / weightp=2 / keyint=240 / keyint_min=24 / scenecut=40 / intra_refresh=0 / rc=2pass / mbtree=0 / bitrate=6956 / ratetol=1.0 / qcomp=0.60 / qpmin=0 / qpmax=69 / qpstep=4 / cplxblur=20.0 / qblur=0.5 / ip_ratio=1.40 / pb_ratio=1.30 / aq=1:1.00
Language : Russian
Default : Yes
Forced : No
Audio
ID : 2
Format : AC-3
Format/Info : Audio Coding 3
Mode extension : CM (complete main)
Format settings, Endianness : Big
Codec ID : A_AC3
Duration : 1h 51mn
Bit rate mode : Constant
Bit rate : 448 Kbps
Channel(s) : 6 channels
Channel positions : Front: L C R, Side: L R, LFE
Sampling rate : 48.0 KHz
Bit depth : 16 bits
Compression mode : Lossy
Stream size : 357 MiB (6%)
Title : Russian
Language : Russian
Default : Yes
Forced : No
Menu
00:00:00.000 : :Chapter 01
00:10:49.583 : :Chapter 02
00:22:23.625 : :Chapter 03
00:28:42.083 : :Chapter 04
00:35:50.083 : :Chapter 05
00:47:02.333 : :Chapter 06
00:55:14.625 : :Chapter 07
01:05:19.083 : :Chapter 08
01:15:50.541 : :Chapter 09
01:23:27.125 : :Chapter 10
01:32:09.458 : :Chapter 11
01:43:26.458 : :Chapter 12
x264 [info]: frame I:1134 Avg QP:13.48 size:165786
x264 [info]: frame P:42722 Avg QP:16.54 size: 65819
x264 [info]: frame B:116738 Avg QP:17.59 size: 24128
x264 [info]: consecutive B-frames: 4.4% 5.4% 15.2% 28.3% 13.8% 29.0% 1.4% 0.9% 0.6% 0.3% 0.6%



   Похожие торренты   Торрент   Размер 
В этой теме нет новых непрочитанных сообщений. ДухLess: Дилогия (2012-2015) BDRip от ExKinoRay | Лицензия

106 | 11

2.91 ГБ

В этой теме нет новых непрочитанных сообщений. ДухLess: Дилогия (2012-2015) BDRip-AVC от HELLYWOOD | Лицензия

908 | 266

2.92 ГБ

В этой теме нет новых непрочитанных сообщений. Духless 2 (2015) BDRip 1080p от Leonardo and Scarabey | Лицензия

2286 | 121

5.82 ГБ

В этой теме нет новых непрочитанных сообщений. ДухLess 2 (2015) BDRemux 1080p | Лицензия

460 | 55

18.96 ГБ

В этой теме нет новых непрочитанных сообщений. Судья Дредд: Дилогия / Judge Dredd: Дилогия (1995-2012) BDRip 1080p от R.G. HD-Films | 60 fps | P, D

54 | 39

18.42 ГБ

В этой теме нет новых непрочитанных сообщений. ДухLess (2012) BDRip от HQCLUB | Лицензия

3226 | 57

1.8 ГБ

В этой теме нет новых непрочитанных сообщений. ДухLess (2012) BDRip-AVC от HELLYWOOD | Лицензия

1439 | 60

1.46 ГБ




Вы не можете начинать темы
Вы не можете отвечать на сообщения
Вы не можете редактировать свои сообщения
Вы не можете удалять свои сообщения
Вы не можете добавлять вложения

Перейти:  
Для Мосгорсуда, Роскомнадзора и рекламодателей: mosgorsud-torrent[собачка]yandex.ru
 Вход
ppkBB3cker v.2 © 2008-2014 @ PPK
[ Time : 0.511s | 15 Queries | GZIP : Off ]

Торрент трекер RUTOR.IN, Не можете зайти на rutor.org? Какой новый адрес рутор? Какое зеркало рутор? Не работает rutor.org и зеркала? Тогда наш торрент специально для вас. Rutor.in неофициальное зеркало rutor. В случае если у Вас заблокирован rutor или вдруг Вы не можете на него зайти, то Вы без труда сможете скачать бесплатно и без рекламы последние новинки кино, игр, сериалов и прочего у нас, на Rutor.in. Не нужно использовать прокси, чтобы зайти на рутор, достаточно воспользоваться нашим ресурсом. Все новые фильмы, игры, сериалы, книги и музыка за 2013 и 2014 годы через торрент бесплатно. Скачивайте фильмы в хорошем качестве, игры для пк, xbox, playstation без регистрации. У нас вы найдете новые Зарубежные сериалы и Русские сериалы 2013, 2014, 2015 годов. Оставайтесь с нами, качайте любимые фильмы, игры, сериалы, книги и музыку.
cron