img image001 image001 image001 image001 image001 image001 image001 image001 image001 image001 image001 image001 image001 image001 image001

Planets Sun Sun Sun
Статистика раздачи
Автор: Nickolas3434 | Размер: 1.45 ГБ | Добавлен: 27 апр 2015
Раздают: 64    Качают: 2
Скачать торрент
Скачать торрент
Описание торрента

СообщениеДобавлено: 27 апр 2015 

Страна: Россия
Жанр: драма
Год выпуска: 2009
Продолжительность: 01:29:59
Перевод: Не требуется
Cубтитры: нет
Режиссер: Лидия Боброва
В ролях:
Александр Аравушкин, Ирина Основина, Юрий Жигарьков, Федор Ясников, Александр Фёдоров, Юрий Качалов, Саша Козлов, Анна Плотникова, Галина Волкова, Юрий Вьюшин, Цисана Завгородняя, Кирилл Копусов, Андрей Сидельников, Настя Смирнова, Ольга Шукшина
Описание:
Герои фильма сведены в ситуации, где они решают вопросы веры и правды. Путь духовного возрождения — от тоски, безверия, пьянства, до высокого поиска Бога, смысла собственного бытия — предстоит пройти Максиму Ярикову. И падения будут на этом пути, и взлеты. Комизм сцен с женой, собутыльником-другом Ильей и трагизм встреч с художником Саней. А еще будут мысли Максима и сны…





Качество видео: DVDRip
Формат видео: AVI
Видео: 720x400 (16:9), 25.000 fps, XviD 73 ~ 2111 kbps avg, 0.293bit/pixel
Аудио: 48 kHz, AC3 Dolby Digital, 2/0 (L,R) ch, 192.00 kbps avg
Раздача от:
D:ArhVeruyu_(2009)_DVDRip_[New-team]_by_ser.avi
General
Complete name : D:ArhVeruyu_(2009)_DVDRip_[New-team]_by_ser.avi
Format : AVI
Format/Info : Audio Video Interleave
File size : 1.45 GiB
Duration : 1h 29mn
Overall bit rate : 2 313 Kbps
Writing application : VirtualDubMod 1.5.10.3 | www.virtualdub-fr.org || (build 2550/release)
Writing library : VirtualDubMod build 2550/release
Video #0
ID : 0
Format : MPEG-4 Visual
Format profile : Advanced Simple@L5
Format settings, BVOP : 2
Format settings, QPel : No
Format settings, GMC : No warppoints
Format settings, Matrix : Custom
Codec ID : XVID
Codec ID/Hint : XviD
Duration : 1h 29mn
Bit rate : 2 111 Kbps
Width : 720 pixels
Height : 400 pixels
Display aspect ratio : 16:9
Frame rate : 25.000 fps
Color space : YUV
Chroma subsampling : 4:2:0
Bit depth : 8 bits
Scan type : Progressive
Compression mode : Lossy
Bits/(Pixel*Frame) : 0.293
Stream size : 1.33 GiB (91%)
Writing library : XviD 73
Audio #1
ID : 1
Format : MPEG Audio
Format version : Version 1
Format profile : Layer 3
Codec ID : 55
Codec ID/Hint : MP3
Duration : 1h 29mn
Bit rate mode : Constant
Bit rate : 192 Kbps
Channel(s) : 2 channels
Sampling rate : 48.0 KHz
Compression mode : Lossy
Stream size : 124 MiB (8%)
Alignment : Aligned on interleaves
Interleave, duration : 40 ms (1.00 video frame)
Interleave, preload duration : 504 ms
Writing library : LAME3.99r
Encoding settings : -m s -V 4 -q 0 -lowpass 18.6 -b 192





   Похожие торренты   Торрент   Размер 
В этой теме нет новых непрочитанных сообщений. Верую! (2009) DVDRip от КинозалSAT

11 | 2

1.17 ГБ

В этой теме нет новых непрочитанных сообщений. Верую! (2009) DVDRip от ExKinoRay

8 | 3

1.37 ГБ

В этой теме нет новых непрочитанных сообщений. Верую! (2009) DVD5

1 | 2

4.34 ГБ

В этой теме нет новых непрочитанных сообщений. Долги: В Бога Верую / Cobrador: In god we trust (2006) DVDRip-AVC от Temperest

14 | 2

1.49 ГБ

В этой теме нет новых непрочитанных сообщений. Возвращение оборотня / Maneater (2009) DVDRip от New-Team

98 | 8

745.21 МБ

В этой теме нет новых непрочитанных сообщений. Возвращение оборотня / Maneater (2009) DVDRip от New-Team

123 | 5

1.46 ГБ

В этой теме нет новых непрочитанных сообщений. Вторые. Отряд Кочубея [01-08 из 08] (2009) DVDRip-AVC от New-Team

29 | 2

4.36 ГБ




Вы не можете начинать темы
Вы не можете отвечать на сообщения
Вы не можете редактировать свои сообщения
Вы не можете удалять свои сообщения
Вы не можете добавлять вложения

Перейти:  
Для Мосгорсуда, Роскомнадзора и рекламодателей: mosgorsud-torrent[собачка]yandex.ru
 Вход
ppkBB3cker v.2 © 2008-2014 @ PPK
[ Time : 0.056s | 15 Queries | GZIP : Off ]

Торрент трекер RUTOR.IN, Не можете зайти на rutor.org? Какой новый адрес рутор? Какое зеркало рутор? Не работает rutor.org и зеркала? Тогда наш торрент специально для вас. Rutor.in неофициальное зеркало rutor. В случае если у Вас заблокирован rutor или вдруг Вы не можете на него зайти, то Вы без труда сможете скачать бесплатно и без рекламы последние новинки кино, игр, сериалов и прочего у нас, на Rutor.in. Не нужно использовать прокси, чтобы зайти на рутор, достаточно воспользоваться нашим ресурсом. Все новые фильмы, игры, сериалы, книги и музыка за 2013 и 2014 годы через торрент бесплатно. Скачивайте фильмы в хорошем качестве, игры для пк, xbox, playstation без регистрации. У нас вы найдете новые Зарубежные сериалы и Русские сериалы 2013, 2014, 2015 годов. Оставайтесь с нами, качайте любимые фильмы, игры, сериалы, книги и музыку.