img image001 image001 image001 image001 image001 image001 image001 image001 image001 image001 image001 image001 image001 image001 image001

Planets Sun Sun Sun
Статистика раздачи
Автор: Nickolas3434 | Размер: 1.37 ГБ | Добавлен: 27 апр 2015
Раздают: 1052    Качают: 16
Скачать торрент
Скачать торрент
Описание торрента

СообщениеДобавлено: 27 апр 2015 


Информация о фильме
Оригинальное название: Битва за Севастополь
Год выпуска: 2015
Жанр: Военный, ВОВ, драма, реальные события
Выпущено: Россия, Украина, Новые люди
Режиссер: Сергей Мокрицкий
В ролях: Юлия Пересильд, Евгений Цыганов, Олег Васильков, Никита Тарасов, Джоан Блэкэм, Полина Пахомова, Владимир Лилицкий, Анатолий Кот, Нателла Абелева-Таганова, Валерий Гришко
О фильме: Одна из немногих кинолент посвященных женщинам на войне. История известной женщины снайпера, принимавшей активное участие в обороне Севастополя. Уничтожив 309 фашистов, она покинула Севастополь, будучи серьезно раненой. После выздоровления оказалась в США с русской женской делегацией, ездила вместе с Элеонорой Рузвельт по Америке, убеждая открыть второй фронт.
Файл
Качество: DVDRip-AVC
Видео: MPEG-4 AVC, 1212 Кбит/с, 720x304
Аудио: AC3, 6 ch, 448 Кбит/с
Размер: 1.37 ГБ
Продолжительность: 01:57:54
Язык: Русский
x264 [info]: frame I:1209 Avg QP:14.04 size: 32602
x264 [info]: frame P:45556 Avg QP:17.12 size: 12018
x264 [info]: frame B:130101 Avg QP:19.17 size: 3714
Общее
Уникальный идентификатор : 199658681593954711178656036509136442360 (0x9634DD04C2515EB492EDA31A02ABD3F8)
Полное имя : C:Sevastopol.2015.O.DVDRip.AVC.(H264).mkv
Формат : Matroska
Версия формата : Version 2
Размер файла : 1,37 Гбайт
Продолжительность : 1 ч. 57 м.
Общий поток : 1660 Кбит/сек
Название фильма : by_bog3417
Дата кодирования : UTC 2015-04-26 14:30:35
Программа кодирования : mkvmerge v7.4.0 ('Circles') 64bit built on Dec 12 2014 12:19:56
Библиотека кодирования : libebml v1.3.0 + libmatroska v1.4.1
DURATION : 01:57:54.400000000
NUMBER_OF_FRAMES : 221075
NUMBER_OF_BYTES : 396166400
_STATISTICS_WRITING_APP : mkvmerge v7.4.0 ('Circles') 64bit built on Dec 12 2014 12:19:56
_STATISTICS_WRITING_DATE_UTC : 2015-04-26 14:30:35
_STATISTICS_TAGS : BPS DURATION NUMBER_OF_FRAMES NUMBER_OF_BYTES
Видео
Идентификатор : 1
Формат : AVC
Формат/Информация : Advanced Video Codec
Профиль формата : High@L4.1
Параметр CABAC формата : Да
Параметр ReFrames формата : 9 кадров
Идентификатор кодека : V_MPEG4/ISO/AVC
Продолжительность : 1 ч. 57 м.
Битрейт : 1211 Кбит/сек
Ширина : 720 пикселей
Высота : 304 пикселя
Соотношение сторон : 2,35:1
Режим частоты кадров : Постоянный
Частота кадров : 25,000 кадров/сек
Цветовое пространство : YUV
Субдискретизация насыщенности : 4:2:0
Битовая глубина : 8 бит
Тип развёртки : Прогрессивная
Бит/(Пиксели*Кадры) : 0.221
Размер потока : 994 Мбайт (71%)
Заголовок : by_bog3417
Библиотека кодирования : x264 core 146 r2538 121396c
Настройки программы : cabac=1 / ref=9 / deblock=1:-3:-3 / analyse=0x3:0x133 / me=umh / subme=10 / psy=1 / psy_rd=1.00:0.00 / mixed_ref=1 / me_range=32 / chroma_me=1 / trellis=2 / 8x8dct=1 / cqm=0 / deadzone=21,11 / fast_pskip=0 / chroma_qp_offset=-2 / threads=12 / lookahead_threads=2 / sliced_threads=0 / nr=0 / decimate=0 / interlaced=0 / bluray_compat=0 / constrained_intra=0 / bframes=9 / b_pyramid=2 / b_adapt=2 / b_bias=0 / direct=3 / weightb=1 / open_gop=0 / weightp=2 / keyint=250 / keyint_min=25 / scenecut=40 / intra_refresh=0 / rc=2pass / mbtree=0 / bitrate=1211 / ratetol=1.0 / qcomp=0.60 / qpmin=0 / qpmax=69 / qpstep=4 / cplxblur=20.0 / qblur=0.5 / ip_ratio=1.40 / pb_ratio=1.30 / aq=1:1.00
Язык : English
Default : Да
Forced : Нет
DURATION : 01:57:54.640000000
NUMBER_OF_FRAMES : 176866
NUMBER_OF_BYTES : 1070162422
_STATISTICS_WRITING_APP : mkvmerge v7.4.0 ('Circles') 64bit built on Dec 12 2014 12:19:56
_STATISTICS_WRITING_DATE_UTC : 2015-04-26 14:30:35
_STATISTICS_TAGS : BPS DURATION NUMBER_OF_FRAMES NUMBER_OF_BYTES
Аудио
Идентификатор : 2
Формат : AC-3
Формат/Информация : Audio Coding 3
Расширение режима : CM (complete main)
Параметр Endianness формата : Big
Идентификатор кодека : A_AC3
Продолжительность : 1 ч. 57 м.
Вид битрейта : Постоянный
Битрейт : 448 Кбит/сек
Каналы : 6 каналов
Расположение каналов : Front: L C R, Side: L R, LFE
Частота : 48,0 КГц
Битовая глубина : 16 бит
Метод сжатия : С потерями
Размер потока : 378 Мбайт (27%)
Язык : Russian
Default : Да
Forced : Нет
Меню
00:00:00.000 : en:00:00:00.000
00:09:43.920 : en:00:09:43.920
00:21:51.000 : en:00:21:51.000
00:30:13.880 : en:00:30:13.880
00:42:35.720 : en:00:42:35.720
00:49:30.080 : en:00:49:30.080
00:58:14.840 : en:00:58:14.840
01:07:38.920 : en:01:07:38.920
01:18:14.760 : en:01:18:14.760
01:28:07.080 : en:01:28:07.080
01:39:09.920 : en:01:39:09.920
01:51:50.160 : en:01:51:50.160







   Похожие торренты   Торрент   Размер 
В этой теме нет новых непрочитанных сообщений. Битва за Севастополь (2015) DVDRip-AVC | Лицензия

1408 | 13

2.05 ГБ

В этой теме нет новых непрочитанных сообщений. Битва за Севастополь (2015) DVDRip | Лицензия

8132 | 616

2.05 ГБ

В этой теме нет новых непрочитанных сообщений. Битва за Севастополь (2015) DVDRip от -=HD-NET=- | КПК | Лицензия

385 | 14

449.88 МБ

В этой теме нет новых непрочитанных сообщений. Битва за Севастополь (2015) DVDRip | Лицензия

13229 | 437

1.46 ГБ

В этой теме нет новых непрочитанных сообщений. Битва за Севастополь (2015) DVDRip от Scarabey | Лицензия

659 | 30

746.78 МБ

В этой теме нет новых непрочитанных сообщений. Битва за Севастополь (2015) DVDRip от Scarabey | Лицензия

3452 | 51

2.18 ГБ

В этой теме нет новых непрочитанных сообщений. Битва за Севастополь (2015) DVDRip от Scarabey | Лицензия

11976 | 447

1.45 ГБ




Вы не можете начинать темы
Вы не можете отвечать на сообщения
Вы не можете редактировать свои сообщения
Вы не можете удалять свои сообщения
Вы не можете добавлять вложения

Перейти:  
Для Мосгорсуда, Роскомнадзора и рекламодателей: mosgorsud-torrent[собачка]yandex.ru
 Вход
ppkBB3cker v.2 © 2008-2014 @ PPK
[ Time : 0.040s | 17 Queries | GZIP : Off ]

cron