img image001 image001 image001 image001 image001 image001 image001 image001 image001 image001 image001 image001 image001 image001 image001

Planets Sun Sun Sun
Статистика раздачи
Автор: Nickolas3434 | Размер: 2.04 ГБ | Добавлен: 27 апр 2015
Раздают: 339    Качают: 4
Скачать торрент
Скачать торрент
Описание торрента

СообщениеДобавлено: 27 апр 2015 

Информация о фильме
Оригинальное название: Битва за Севастополь
Год выпуска: 2015
Жанр: Военный, ВОВ, драма, реальные события
Выпущено: Россия, Украина, Новые люди
Режиссер: Сергей Мокрицкий
В ролях: Юлия Пересильд, Евгений Цыганов, Олег Васильков, Никита Тарасов, Джоан Блэкэм, Полина Пахомова, Владимир Лилицкий, Анатолий Кот, Нателла Абелева-Таганова, Валерий Гришко
О фильме: Людмила Павличенко во время Великой Отечественной Войны была снайпером и свою известность получила благодаря метким выстрелам. Мы познакомимся с девушкой еще в юном возрасте. Будучи аспиранткой в Киевском институте, она отправляется для практики в Одессу. Там её и застало начало войны. Хрупкая красавица попала на фронт обычным бойцом стрелковой дивизии и ей пришлось пройти через много тягот, прежде чем она стала одним из самых знаменитых персонажей новейшей отечественной истории. Но героине не только приходится жать на курок - во время последнего боя она была ранена. Благодаря своему ранению, она смогла познакомиться с госпожой Рузвельт и их знакомство качественно повлияло на исход всемирной бойни.…

Файл
Качество: DVDRip (AVC)
Видео: MPEG-4 AVC, 2031 Кбит/с, 720x300
Аудио: AC3, 6 ch, 448 Кбит/с
Продолжительность: 01:57:54
Язык: Русский
General
Unique ID : 196974849536369313154542527120189275651 (0x942FF9E1C6CA6D81B543E0BF8CADBE03)
Complete name : C:Sevastopol.2015.O.DVDRip.AVC.ExKinoRay.mkv
Format : Matroska
Format version : Version 4 / Version 2
File size : 2.04 GiB
Duration : 1h 57mn
Overall bit rate : 2 480 Kbps
Movie name : Sevastopol 2015 from ExKinoRay
Encoded date : UTC 2015-04-26 20:04:47
Writing application : mkvmerge v6.6.0 ('The Edge Of The In Between') built on Dec 1 2013 17:55:00
Writing library : libebml v1.3.0 + libmatroska v1.4.1
Video
ID : 1
Format : AVC
Format/Info : Advanced Video Codec
Format profile : High@L4.1
Format settings, CABAC : Yes
Format settings, ReFrames : 10 frames
Codec ID : V_MPEG4/ISO/AVC
Duration : 1h 57mn
Bit rate : 2 031 Kbps
Width : 720 pixels
Height : 300 pixels
Display aspect ratio : 2.40:1
Frame rate mode : Constant
Frame rate : 25.000 fps
Color space : YUV
Chroma subsampling : 4:2:0
Bit depth : 8 bits
Scan type : Progressive
Bits/(Pixel*Frame) : 0.376
Stream size : 1.63 GiB (80%)
Title : Enigma
Writing library : x264 core 133 r2334 a3ac64b
Encoding settings : cabac=1 / ref=10 / deblock=1:-2:-2 / analyse=0x3:0x113 / me=umh / subme=10 / psy=1 / psy_rd=1.05:0.15 / mixed_ref=1 / me_range=32 / chroma_me=1 / trellis=2 / 8x8dct=1 / cqm=0 / deadzone=21,11 / fast_pskip=0 / chroma_qp_offset=-3 / threads=12 / lookahead_threads=2 / sliced_threads=0 / nr=0 / decimate=0 / interlaced=0 / bluray_compat=0 / constrained_intra=0 / bframes=9 / b_pyramid=2 / b_adapt=2 / b_bias=0 / direct=3 / weightb=1 / open_gop=0 / weightp=2 / keyint=250 / keyint_min=25 / scenecut=40 / intra_refresh=0 / rc=2pass / mbtree=0 / bitrate=2031 / ratetol=1.0 / qcomp=0.65 / qpmin=0 / qpmax=51 / qpstep=4 / cplxblur=20.0 / qblur=0.5 / ip_ratio=1.40 / pb_ratio=1.30 / aq=1:1.00
Default : Yes
Forced : No
Color primaries : BT.601 PAL
Transfer characteristics : BT.470 System B, BT.470 System G
Matrix coefficients : BT.601
Audio
ID : 2
Format : AC-3
Format/Info : Audio Coding 3
Mode extension : CM (complete main)
Format settings, Endianness : Big
Codec ID : A_AC3
Duration : 1h 57mn
Bit rate mode : Constant
Bit rate : 448 Kbps
Channel(s) : 6 channels
Channel positions : Front: L C R, Side: L R, LFE
Sampling rate : 48.0 KHz
Bit depth : 16 bits
Compression mode : Lossy
Stream size : 378 MiB (18%)
Language : Russian
Default : Yes
Forced : No
Menu
00:00:00.000 : :Chapter 01
00:09:43.920 : :Chapter 02
00:21:51.000 : :Chapter 03
00:30:13.880 : :Chapter 04
00:42:35.720 : :Chapter 05
00:49:30.080 : :Chapter 06
00:58:14.840 : :Chapter 07
01:07:38.920 : :Chapter 08
01:18:14.760 : :Chapter 09
01:28:07.080 : :Chapter 10
01:39:09.920 : :Chapter 11
01:51:50.160 : :Chapter 12





Релиз от:
Автор релиза:



   Похожие торренты   Торрент   Размер 
В этой теме нет новых непрочитанных сообщений. Битва за Севастополь (2015) DVDRip-AVC от ExKinoRay | Лицензия

354 | 6

1.57 ГБ

В этой теме нет новых непрочитанных сообщений. Битва за Севастополь (2015) DVDRip-AVC от ExKinoRay | Лицензия

179 | 10

744.98 МБ

В этой теме нет новых непрочитанных сообщений. Битва за Севастополь (2015) DVDRip | Лицензия

8132 | 616

2.05 ГБ

В этой теме нет новых непрочитанных сообщений. Битва за Севастополь (2015) DVDRip-AVC | Лицензия

1408 | 13

2.05 ГБ

В этой теме нет новых непрочитанных сообщений. Битва за Севастополь (2015) DVDRip от -=HD-NET=- | КПК | Лицензия

385 | 14

449.88 МБ

В этой теме нет новых непрочитанных сообщений. Битва за Севастополь (2015) DVDRip | Лицензия

13229 | 437

1.46 ГБ

В этой теме нет новых непрочитанных сообщений. Битва за Севастополь (2015) DVDRip-AVC | Лицензия

1052 | 16

1.37 ГБ




Вы не можете начинать темы
Вы не можете отвечать на сообщения
Вы не можете редактировать свои сообщения
Вы не можете удалять свои сообщения
Вы не можете добавлять вложения

Перейти:  
Для Мосгорсуда, Роскомнадзора и рекламодателей: mosgorsud-torrent[собачка]yandex.ru
 Вход
ppkBB3cker v.2 © 2008-2014 @ PPK
[ Time : 0.039s | 16 Queries | GZIP : Off ]

cron