img image001 image001 image001 image001 image001 image001 image001 image001 image001 image001 image001 image001 image001 image001 image001

Planets Sun Sun Sun
Статистика раздачи
Автор: Nickolas3434 | Размер: 752.41 МБ | Добавлен: 27 апр 2015
Раздают: 262    Качают: 6
Скачать торрент
Скачать торрент
Описание торрента

СообщениеДобавлено: 27 апр 2015 


Информация о фильме
Название: Белая белая ночь
Год выхода: 2014
Жанр: драма, криминал
Режиссер: Рамиль Салахутдинов
В ролях: Ирина Обрезкова, Артем Цыпин, Сергей Барковский, Оксана Базилевич, Алла Еминцева, Дмитрий Гульнев, Петр Касатьев, Владимир Марьянов, Светлана Обидина, Юрий Орлов
О фильме:
Молодой парень приезжает в Петербург на концерт и пропадает. На его поиски из Москвы отправляется частный детектив Игорь. В ходе расследования он встречается с разными людьми, перед ним возникает современная гнетущая атмосфера города, в котором он сам жил много лет назад. В результате Игорь узнает, что пропавший парень случайно оказался втянутым в криминальную историю, связанную с современной застройкой исторического центра Петербурга. Он находит парня в больнице избитым, в состоянии комы и обнаруживает, что избившие его люди по-прежнему охотятся на него. Подвергая себя серьезной опасности, Игорь берет парня под свою защиту, и это дает ему почувствовать свою востребованность...

Страна: Россия
Продолжительность: 02:02:15
Перевод: Не требуется
Файл
Кодек: AVI (XviD)
Качество: WEB-DLRip
Видео: 624x336 (1.86:1), 24 fps, XviD build 73 ~723 kbps avg, 0.14 bit/pixel
Звук: 48 kHz, MPEG Layer 3, 2 ch, ~128.00 kbps avg
Субтитры: нет
Семпл
Общее
Полное имя : S:ФильмыБелая белая ночь. 2014. WEB-DLRip (AleksSin).avi
Формат : AVI
Формат/Информация : Audio Video Interleave
Размер файла : 752 Мбайт
Продолжительность : 2 ч. 2 м.
Общий поток : 860 Кбит/сек
Программа кодирования : VirtualDubMod 1.5.10.3 | www.virtualdub-fr.org || (build 2550/release)
Библиотека кодирования : VirtualDubMod build 2550/release
Видео
Идентификатор : 0
Формат : MPEG-4 Visual
Профиль формата : Advanced Simple@L5
Параметр BVOP формата : 1
Параметр QPel формата : Нет
Параметр GMC формата : Без точки перехода
Параметр матрицы формата : Выборочная
Идентификатор кодека : XVID
Идентификатор кодека/Подсказка : XviD
Продолжительность : 2 ч. 2 м.
Битрейт : 723 Кбит/сек
Ширина : 624 пикс.
Высота : 336 пикс.
Соотношение сторон : 1,857
Частота кадров : 24,000 кадр/сек
Цветовое пространство : YUV
Подвыборка цветности : 4:2:0
Битовая глубина : 8 бит
Тип развёртки : Прогрессивная
Метод сжатия : С потерями
Бит/(Пиксели*Кадры) : 0.144
Размер потока : 632 Мбайт (84%)
Библиотека кодирования : XviD 73
Аудио
Идентификатор : 1
Формат : MPEG Audio
Версия формата : Version 1
Профиль формата : Layer 3
Идентификатор кодека : 55
Идентификатор кодека/Подсказка : MP3
Продолжительность : 2 ч. 2 м.
Вид битрейта : Постоянный
Битрейт : 128 Кбит/сек
Каналы : 2 канала
Частота : 48,0 КГц
Метод сжатия : С потерями
Размер потока : 112 Мбайт (15%)
Выравнивание : Соединение по промежуткам
Продолжительность промежутка : 42 мс. (1,00 видеокадр)
Время предзагрузки промежутка : 504 ms
Библиотека кодирования : LAME3.99r
Настройки программы : -m s -V 4 -q 2 -lowpass 17 -b 128


Релиз от:



   Похожие торренты   Торрент   Размер 
В этой теме нет новых непрочитанных сообщений. Белая белая ночь (2014) WEB-DLRip 720p от MegaPeer

13 | 0

2.52 ГБ

В этой теме нет новых непрочитанных сообщений. Белая белая ночь (2014) WEB-DLRip

396 | 25

1.46 ГБ

В этой теме нет новых непрочитанных сообщений. Белая ночь [01-04 из 04] (2014) HDTV 1080i от MediaClub

462 | 92

13.18 ГБ

В этой теме нет новых непрочитанных сообщений. Белая ночь [01-04 из 04] (2014) HDTVRip 720p от MediaClub

506 | 66

7.38 ГБ

В этой теме нет новых непрочитанных сообщений. Белая ночь, нежная ночь (2008) DVDRip от КинозалSat

3 | 4

1.17 ГБ

В этой теме нет новых непрочитанных сообщений. Белая ночь, нежная ночь (2008) DVDRip от Кинорадиомагия

33 | 20

1.37 ГБ

В этой теме нет новых непрочитанных сообщений. Белая ночь [01-04 из 04] (2015) HDTVRip-AVC

0 | 56

2.11 ГБ




Вы не можете начинать темы
Вы не можете отвечать на сообщения
Вы не можете редактировать свои сообщения
Вы не можете удалять свои сообщения
Вы не можете добавлять вложения

Перейти:  
Для Мосгорсуда, Роскомнадзора и рекламодателей: mosgorsud-torrent[собачка]yandex.ru
 Вход
ppkBB3cker v.2 © 2008-2014 @ PPK
[ Time : 0.046s | 15 Queries | GZIP : Off ]

cron