img image001 image001 image001 image001 image001 image001 image001 image001 image001 image001 image001 image001 image001 image001 image001

Planets Sun Sun Sun
Статистика раздачи
Автор: Nickolas3434 | Размер: 744.7 МБ | Добавлен: 29 апр 2015
Раздают: 11    Качают: 8
Скачать торрент
Скачать торрент
Описание торрента

СообщениеДобавлено: 29 апр 2015 

Страна: СССР
Производство: Союздетфильм
Жанр: детский, фэнтези
Год выпуска: 1945
Продолжительность: 00:43:37
Перевод: Не требуется
Cубтитры: нет
Оригинальная аудиодорожка: русский
Режиссер: Илья Фрэз
В ролях:
Наталья Защипина, Давик Маркиш, Виктор Павлов, Людмила Коломеец, Вилли Медников, Фаина Раневская, Ростислав Плятт, Тамара Сезеневская, Владимир Волчик, Елена Чайковская...
Описание:
С утра до вечера девочки одного из московских домов неутомимо прыгают через прыгалки. И только маленькая Лидочка никак не может научиться прыгать. Однажды во сне мудрый слон дает ей совет: чтобы научиться прыгать, надо вначале сделать доброе дело… Девочка следует совету слона и добивается успеха.





Источник: DVD5 R5
Качество видео: DVDRip-AVC
Формат видео: MKV
Видео: 704->760x570 (4:3), 25 fps, H264 ~ 2193 kbps avg, 0.219 bit/pixel
Аудио: 48 kHz, Dolby Digital AC3 2.0, 192 kbps
Раздача от:
Общее
Полное имя : Slon.i.verevochka.1945.DVDRip-AVC_[New-team]_by_AVP_Studio.mkv
Формат : Matroska
Версия формата : Version 2
Размер файла : 745 Мбайт
Продолжительность : 43 м.
Общий поток : 2387 Кбит/сек
Дата кодирования : UTC 2015-04-23 13:42:14
Программа кодирования : mkvmerge v6.1.0 ('Old Devil') built on Mar 4 2013 09:10:42
Библиотека кодирования : libebml v1.3.0 + libmatroska v1.4.0
DURATION : 00:43:36.800000000
NUMBER_OF_FRAMES : 81775
NUMBER_OF_BYTES : 62803200
_STATISTICS_WRITING_APP : mkvmerge v7.8.0 ('River Man') 64bit built on Mar 27 2015 16:31:37
_STATISTICS_WRITING_DATE_UTC : 2015-04-22 08:25:19
_STATISTICS_TAGS : BPS DURATION NUMBER_OF_FRAMES NUMBER_OF_BYTES
Видео
Идентификатор : 1
Формат : AVC
Формат/Информация : Advanced Video Codec
Профиль формата : High@L4.1
Параметр CABAC формата : Да
Параметр ReFrames формата : 8 кадров
Идентификатор кодека : V_MPEG4/ISO/AVC
Продолжительность : 43 м.
Битрейт : 2193 Кбит/сек
Ширина : 704 пикселя
Высота : 570 пикселей
Соотношение сторон : 4:3
Режим частоты кадров : Постоянный
Частота кадров : 25,000 кадров/сек
Цветовое пространство : YUV
Субдискретизация насыщенности : 4:2:0
Битовая глубина : 8 бит
Тип развёртки : Прогрессивная
Бит/(Пиксели*Кадры) : 0.219
Размер потока : 670 Мбайт (90%)
Библиотека кодирования : x264 core 138 r2356 a1d3d17
Настройки программы : cabac=1 / ref=8 / deblock=1:-2:-1 / analyse=0x3:0x113 / me=umh / subme=10 / psy=1 / psy_rd=1.00:0.05 / mixed_ref=1 / me_range=32 / chroma_me=1 / trellis=2 / 8x8dct=1 / cqm=0 / deadzone=21,11 / fast_pskip=0 / chroma_qp_offset=-3 / threads=6 / lookahead_threads=1 / sliced_threads=0 / nr=0 / decimate=0 / interlaced=0 / bluray_compat=0 / constrained_intra=0 / bframes=8 / b_pyramid=2 / b_adapt=2 / b_bias=0 / direct=3 / weightb=1 / open_gop=0 / weightp=2 / keyint=250 / keyint_min=25 / scenecut=40 / intra_refresh=0 / rc=2pass / mbtree=0 / bitrate=2193 / ratetol=1.0 / qcomp=0.60 / qpmin=0 / qpmax=69 / qpstep=4 / cplxblur=20.0 / qblur=0.5 / ip_ratio=1.40 / pb_ratio=1.30 / aq=1:1.00
Default : Да
Forced : Нет
Аудио
Идентификатор : 2
Формат : AC-3
Формат/Информация : Audio Coding 3
Расширение режима : CM (complete main)
Параметр Endianness формата : Big
Идентификатор кодека : A_AC3
Продолжительность : 43 м.
Вид битрейта : Постоянный
Битрейт : 192 Кбит/сек
Каналы : 2 канала
Расположение каналов : Front: L R
Частота : 48,0 КГц
Битовая глубина : 16 бит
Метод сжатия : С потерями
Размер потока : 59,9 Мбайт (8%)
Default : Да
Forced : Нет





   Похожие торренты   Торрент   Размер 
В этой теме нет новых непрочитанных сообщений. Слон и веревочка (1945) DVDRip от New-Team

4 | 3

745.1 МБ

В этой теме нет новых непрочитанных сообщений. Слон и веревочка (1945) DVDRip

5 | 1

593.17 МБ

В этой теме нет новых непрочитанных сообщений. Берлин (1945) DVDRip от New-Team

48 | 7

745.04 МБ

В этой теме нет новых непрочитанных сообщений. Непокоренные (1945) DVDRip от New-Team

19 | 6

746.02 МБ

В этой теме нет новых непрочитанных сообщений. Берлин (1945) DVDRip-AVC от New-Team

137 | 14

745.06 МБ

В этой теме нет новых непрочитанных сообщений. Непокоренные (1945) DVDRip-AVC от New-Team

25 | 4

1.46 ГБ

В этой теме нет новых непрочитанных сообщений. Непокоренные (1945) DVDRip от New-Team

38 | 17

1.46 ГБ




Вы не можете начинать темы
Вы не можете отвечать на сообщения
Вы не можете редактировать свои сообщения
Вы не можете удалять свои сообщения
Вы не можете добавлять вложения

Перейти:  
Для Мосгорсуда, Роскомнадзора и рекламодателей: mosgorsud-torrent[собачка]yandex.ru
 Вход
ppkBB3cker v.2 © 2008-2014 @ PPK
[ Time : 1.112s | 15 Queries | GZIP : On ]

Торрент трекер RUTOR.IN, Не можете зайти на rutor.org? Какой новый адрес рутор? Какое зеркало рутор? Не работает rutor.org и зеркала? Тогда наш торрент специально для вас. Rutor.in неофициальное зеркало rutor. В случае если у Вас заблокирован rutor или вдруг Вы не можете на него зайти, то Вы без труда сможете скачать бесплатно и без рекламы последние новинки кино, игр, сериалов и прочего у нас, на Rutor.in. Не нужно использовать прокси, чтобы зайти на рутор, достаточно воспользоваться нашим ресурсом. Все новые фильмы, игры, сериалы, книги и музыка за 2013 и 2014 годы через торрент бесплатно. Скачивайте фильмы в хорошем качестве, игры для пк, xbox, playstation без регистрации. У нас вы найдете новые Зарубежные сериалы и Русские сериалы 2013, 2014, 2015 годов. Оставайтесь с нами, качайте любимые фильмы, игры, сериалы, книги и музыку.