img image001 image001 image001 image001 image001 image001 image001 image001 image001 image001 image001 image001 image001 image001 image001

Planets Sun Sun Sun
Статистика раздачи
Автор: Nickolas3434 | Размер: 744.96 МБ | Добавлен: 29 апр 2015
Раздают: 68    Качают: 10
Скачать торрент
Скачать торрент
Описание торрента

СообщениеДобавлено: 29 апр 2015 


Информация о фильме
Название: Самый лучший фильм 3-ДЭ
Год выхода: 2011
Жанр: Комедия, приключения, пародия
Режиссёр: Кирилл Кузин
В ролях: Гарик Харламов, Пётр Винс, Екатерина Кузнецова, Александр Балуев, Михаил Ефремов, Александр Семчев, Валентин Смирнитский, Денис Яковлев, Константин Соловьёв, Денис Жариков, Дмитрий Зеничев
О фильме:
Макс Утёсов - недооцененный режиссер-любитель. Утесов снимает свои фильмы на любительскую камеру. В это же время российские киноакадемики проводят конкурс «Самый лучший фильм России», в финал которого вышли 7 известнейших кинокартин. До церемонии объявления победителя конкурса пленки с фильмами (все в единственном экземпляре) запираются в сейф. Но Виктор Палыч подкупает организатора премии Эдуарда Рыкова, чтобы получить картины для нелицензионного копирования. Перевезти фильмы от Рыкова к Виктору Палычу должен Макс Утесов и его друг Саня. Они проваливают задание: пленки сгорают, и друзей начинают разыскивать видеопираты. Единственный способ выжить: за несколько дней переснять знаменитые российские кинокартины. Но вот в чем парадокс: копии Утёсова вполне могут оказаться качественней оригиналов...

Страна: Россия
Студия: Comedy Club Production, Monument Pictures
Продолжительность: 01:41:37
Перевод: Не требуется
Файл
Кодек: XviD
Качество: BDRip [Исходник: Blu-ray RUS 1080p AVC DTS-HD 5.1]
Видео: XviD, 624x336 (1.857), 888 Кбит/с, 23,976 кадр/с
Звук: Русский, MP3, 48000 Гц, 128 Кбит/с, 2 канала (Стерео)
Субтитры: Нет

General
Complete name : Samyy.luchshiy.film.3DE.2011.BDRip.745MB.avi
Format : AVI
Format/Info : Audio Video Interleave
File size : 745 MiB
Duration : 1h 41mn
Overall bit rate : 1 025 Kbps
Writing application : VirtualDubMod 1.5.10.3 | www.virtualdub-fr.org || (build 2550/release)
Writing library : VirtualDubMod build 2550/release
Copyright : rip by ivandubskoj
Video
ID : 0
Format : MPEG-4 Visual
Format profile : Advanced Simple@L5
Format settings, BVOP : 2
Format settings, QPel : No
Format settings, GMC : No warppoints
Format settings, Matrix : Custom
Codec ID : XVID
Codec ID/Hint : XviD
Duration : 1h 41mn
Bit rate : 888 Kbps
Width : 624 pixels
Height : 336 pixels
Display aspect ratio : 1.857
Frame rate : 23.976 fps
Color space : YUV
Chroma subsampling : 4:2:0
Bit depth : 8 bits
Scan type : Progressive
Compression mode : Lossy
Bits/(Pixel*Frame) : 0.177
Stream size : 645 MiB (87%)
Writing library : XviD 73
Audio
ID : 1
Format : MPEG Audio
Format version : Version 1
Format profile : Layer 3
Codec ID : 55
Codec ID/Hint : MP3
Duration : 1h 41mn
Bit rate mode : Constant
Bit rate : 128 Kbps
Channel(s) : 2 channels
Sampling rate : 48.0 KHz
Compression mode : Lossy
Stream size : 93.0 MiB (12%)
Alignment : Aligned on interleaves
Interleave, duration : 42 ms (1.00 video frame)
Interleave, preload duration : 504 ms
Writing library : LAME3.99r
Encoding settings : -m s -V 4 -q 0 -lowpass 17 -b 128

Автор рипа - ivandubskoj



   Похожие торренты   Торрент   Размер 
В этой теме нет новых непрочитанных сообщений. Самый лучший фильм 3-ДЭ (2011) Blu-ray Remux 1080p от ivandubskoj | Лицензия

107 | 10

19.18 ГБ

В этой теме нет новых непрочитанных сообщений. Самый лучший фильм 3-ДЭ (2011) BDRip от ivandubskoj

0 | 2

744.96 МБ

В этой теме нет новых непрочитанных сообщений. Беременный (2011) BDRip от ivandubskoj | Лицензия

20 | 10

701.46 МБ

В этой теме нет новых непрочитанных сообщений. Самый лучший фильм 2 (2009) DVDRip от ivandubskoj

431 | 27

1.46 ГБ

В этой теме нет новых непрочитанных сообщений. Ты и я / You and I (2011) HDRip от ivandubskoj | Лицензия

31 | 5

746.14 МБ

В этой теме нет новых непрочитанных сообщений. Ты и я / You and I (2011) HDRip от ivandubskoj | Лицензия

139 | 18

2.05 ГБ

В этой теме нет новых непрочитанных сообщений. Беременный (2011) Blu-ray Remux 1080p от ivandubskoj | Лицензия

4 | 6

13.63 ГБ




Вы не можете начинать темы
Вы не можете отвечать на сообщения
Вы не можете редактировать свои сообщения
Вы не можете удалять свои сообщения
Вы не можете добавлять вложения

Перейти:  
Для Мосгорсуда, Роскомнадзора и рекламодателей: mosgorsud-torrent[собачка]yandex.ru
 Вход
ppkBB3cker v.2 © 2008-2014 @ PPK
[ Time : 0.040s | 15 Queries | GZIP : Off ]

Торрент трекер RUTOR.IN, Не можете зайти на rutor.org? Какой новый адрес рутор? Какое зеркало рутор? Не работает rutor.org и зеркала? Тогда наш торрент специально для вас. Rutor.in неофициальное зеркало rutor. В случае если у Вас заблокирован rutor или вдруг Вы не можете на него зайти, то Вы без труда сможете скачать бесплатно и без рекламы последние новинки кино, игр, сериалов и прочего у нас, на Rutor.in. Не нужно использовать прокси, чтобы зайти на рутор, достаточно воспользоваться нашим ресурсом. Все новые фильмы, игры, сериалы, книги и музыка за 2013 и 2014 годы через торрент бесплатно. Скачивайте фильмы в хорошем качестве, игры для пк, xbox, playstation без регистрации. У нас вы найдете новые Зарубежные сериалы и Русские сериалы 2013, 2014, 2015 годов. Оставайтесь с нами, качайте любимые фильмы, игры, сериалы, книги и музыку.
cron