img image001 image001 image001 image001 image001 image001 image001 image001 image001 image001 image001 image001 image001 image001 image001

Planets Sun Sun Sun
Статистика раздачи
Автор: Nickolas3434 | Размер: 19.18 ГБ | Добавлен: 29 апр 2015
Раздают: 107    Качают: 10
Скачать торрент
Скачать торрент
Описание торрента

СообщениеДобавлено: 29 апр 2015 


Информация о фильме
Название: Самый лучший фильм 3-ДЭ
Год выхода: 2011
Жанр: Комедия, приключения, пародия
Режиссёр: Кирилл Кузин
В ролях: Гарик Харламов, Пётр Винс, Екатерина Кузнецова, Александр Балуев, Михаил Ефремов, Александр Семчев, Валентин Смирнитский, Денис Яковлев, Константин Соловьёв, Денис Жариков, Дмитрий Зеничев
О фильме:
Макс Утёсов - недооцененный режиссер-любитель. Утесов снимает свои фильмы на любительскую камеру. В это же время российские киноакадемики проводят конкурс «Самый лучший фильм России», в финал которого вышли 7 известнейших кинокартин. До церемонии объявления победителя конкурса пленки с фильмами (все в единственном экземпляре) запираются в сейф. Но Виктор Палыч подкупает организатора премии Эдуарда Рыкова, чтобы получить картины для нелицензионного копирования. Перевезти фильмы от Рыкова к Виктору Палычу должен Макс Утесов и его друг Саня. Они проваливают задание: пленки сгорают, и друзей начинают разыскивать видеопираты. Единственный способ выжить: за несколько дней переснять знаменитые российские кинокартины. Но вот в чем парадокс: копии Утёсова вполне могут оказаться качественней оригиналов...

Страна: Россия
Студия: Comedy Club Production, Monument Pictures
Продолжительность: 01:41:37
Перевод: Не требуется
Файл
Кодек: MPEG-4 AVC
Качество: Blu-Ray Remux (1080p) [Исходник: Blu-ray RUS 1080p AVC DTS-HD 5.1]
Видео: MPEG-4 AVC, 24.3 Mбит/с, 1920x1080 (16:9), 23.976 кадр/с
Аудио #1: Русский, Dolby AC3, 48000 Гц, 640 Кбит/с, 6 каналов (5.1) - Оригинал
Аудио #2: Русский, DTS-HD MA, 48000 Гц, 2383 Кбит/с, 6 каналов (5.1) - Оригинал
Субтитры: Русские, украинские, английские (полные, SRT)
Навигация по главам: Есть (сохранены оригинальные чаптеры как на Blu-ray)
General
Unique ID : 239657152162915129905435208000134509028 (0xB44C49DFF7824C699769A0BFFD90F1E4)
Complete name : Samyy.luchshiy.film.3DE.2011.BDRemux.1080p.mkv
Format : Matroska
File size : 19.2 GiB
Duration : 1h 41mn
Overall bit rate : 27.0 Mbps
Movie name : Самый лучший фильм 3-ДЭ (2011) Blu-ray Remux (1080p)
Encoded date : UTC 2015-04-25 12:19:25
Writing application : mkvmerge v6.1.0 ('Old Devil') built on Mar 4 2013 09:10:42
Writing library : libebml v1.3.0 + libmatroska v1.4.0
Video
ID : 1
Format : AVC
Format/Info : Advanced Video Codec
Format profile : High@L4.1
Format settings, CABAC : Yes
Format settings, ReFrames : 4 frames
Codec ID : V_MPEG4/ISO/AVC
Duration : 1h 41mn
Bit rate mode : Variable
Bit rate : 24.3 Mbps
Maximum bit rate : 38.0 Mbps
Width : 1 920 pixels
Height : 1 080 pixels
Display aspect ratio : 16:9
Frame rate : 23.976 fps
Standard : NTSC
Color space : YUV
Chroma subsampling : 4:2:0
Bit depth : 8 bits
Scan type : Progressive
Bits/(Pixel*Frame) : 0.489
Stream size : 17.2 GiB (90%)
Title : Самый лучший фильм 3-ДЭ
Language : Russian
Color primaries : BT.709-5, BT.1361, IEC 61966-2-4, SMPTE RP177
Transfer characteristics : BT.709-5, BT.1361
Matrix coefficients : BT.709-5, BT.1361, IEC 61966-2-4 709, SMPTE RP177
Audio #1
ID : 2
Format : AC-3
Format/Info : Audio Coding 3
Mode extension : CM (complete main)
Codec ID : A_AC3
Duration : 1h 41mn
Bit rate mode : Constant
Bit rate : 640 Kbps
Channel(s) : 6 channels
Channel positions : Front: L C R, Side: L R, LFE
Sampling rate : 48.0 KHz
Bit depth : 16 bits
Compression mode : Lossy
Stream size : 465 MiB (2%)
Title : Original [DD 5.1]
Language : Russian
Audio #2
ID : 3
Format : DTS
Format/Info : Digital Theater Systems
Format profile : MA / Core
Codec ID : A_DTS
Duration : 1h 41mn
Bit rate mode : Variable
Bit rate : 1 561 Kbps / 1 510 Kbps
Channel(s) : 6 channels
Channel positions : Front: L C R, Side: L R, LFE
Sampling rate : 48.0 KHz
Bit depth : 16 bits
Compression mode : Lossless / Lossy
Title : Original [DTS-HD MA 5.1]
Language : Russian
Text #1
ID : 4
Format : UTF-8
Codec ID : S_TEXT/UTF8
Codec ID/Info : UTF-8 Plain Text
Title : Full
Language : Russian
Text #2
ID : 5
Format : UTF-8
Codec ID : S_TEXT/UTF8
Codec ID/Info : UTF-8 Plain Text
Title : Full
Language : Ukrainian
Text #3
ID : 6
Format : UTF-8
Codec ID : S_TEXT/UTF8
Codec ID/Info : UTF-8 Plain Text
Title : Full
Language : English
Menu
00:00:00.000 : en:Chapter 01
00:05:30.830 : en:Chapter 02
00:10:30.755 : en:Chapter 03
00:18:28.315 : en:Chapter 04
00:24:19.207 : en:Chapter 05
00:31:44.444 : en:Chapter 06
00:38:19.922 : en:Chapter 07
00:43:02.580 : en:Chapter 08
00:47:15.249 : en:Chapter 09
00:51:35.926 : en:Chapter 10
00:56:31.638 : en:Chapter 11
01:00:02.682 : en:Chapter 12
01:04:45.256 : en:Chapter 13
01:11:34.999 : en:Chapter 14
01:19:58.627 : en:Chapter 15
01:26:00.655 : en:Chapter 16
01:32:17.657 : en:Chapter 17
01:38:00.457 : en:Chapter 18
01:41:37.007 : en:Chapter 19



Автор ремукса - ivandubskoj



   Похожие торренты   Торрент   Размер 
В этой теме нет новых непрочитанных сообщений. Беременный (2011) Blu-ray Remux 1080p от ivandubskoj | Лицензия

4 | 6

13.63 ГБ

В этой теме нет новых непрочитанных сообщений. Ласковый май (2009) Blu-ray Remux (1080p) от ivandubskoj | Лицензия

43 | 15

17.15 ГБ

В этой теме нет новых непрочитанных сообщений. О, счастливчик! (2009) Blu-Ray Remux 1080p от ivandubskoj | Лицензия

16 | 6

18.18 ГБ

В этой теме нет новых непрочитанных сообщений. Код апокалипсиса (2007) Blu-Ray Remux 1080p от ivandubskoj | Лицензия

17 | 4

20.51 ГБ

В этой теме нет новых непрочитанных сообщений. Самый лучший фильм 3-ДЭ (2011) BDRip от ivandubskoj | Лицензия

68 | 10

744.96 МБ

В этой теме нет новых непрочитанных сообщений. 8 первых свиданий (2012) Blu-ray Remux 1080p от ivandubskoj | Лицензия

116 | 33

14.21 ГБ

В этой теме нет новых непрочитанных сообщений. Гитлер Капут! (2008) Blu-ray Remux 1080p от ivandubskoj | Лицензия

132 | 7

18.79 ГБ




Вы не можете начинать темы
Вы не можете отвечать на сообщения
Вы не можете редактировать свои сообщения
Вы не можете удалять свои сообщения
Вы не можете добавлять вложения

Перейти:  
Для Мосгорсуда, Роскомнадзора и рекламодателей: mosgorsud-torrent[собачка]yandex.ru
 Вход
ppkBB3cker v.2 © 2008-2014 @ PPK
[ Time : 0.043s | 15 Queries | GZIP : Off ]

Торрент трекер RUTOR.IN, Не можете зайти на rutor.org? Какой новый адрес рутор? Какое зеркало рутор? Не работает rutor.org и зеркала? Тогда наш торрент специально для вас. Rutor.in неофициальное зеркало rutor. В случае если у Вас заблокирован rutor или вдруг Вы не можете на него зайти, то Вы без труда сможете скачать бесплатно и без рекламы последние новинки кино, игр, сериалов и прочего у нас, на Rutor.in. Не нужно использовать прокси, чтобы зайти на рутор, достаточно воспользоваться нашим ресурсом. Все новые фильмы, игры, сериалы, книги и музыка за 2013 и 2014 годы через торрент бесплатно. Скачивайте фильмы в хорошем качестве, игры для пк, xbox, playstation без регистрации. У нас вы найдете новые Зарубежные сериалы и Русские сериалы 2013, 2014, 2015 годов. Оставайтесь с нами, качайте любимые фильмы, игры, сериалы, книги и музыку.