img image001 image001 image001 image001 image001 image001 image001 image001 image001 image001 image001 image001 image001 image001 image001

Planets Sun Sun Sun
Статистика раздачи
Автор: Nickolas3434 | Размер: 1.45 ГБ | Добавлен: 29 апр 2015
Раздают: 200    Качают: 20
Скачать торрент
Скачать торрент
Описание торрента

СообщениеДобавлено: 29 апр 2015 


Информация о фильме
Название: Вокзал для двоих
Год выхода: 1982
Жанр: Мелодрама, трагикомедия
Режиссер: Эльдар Рязанов
В ролях: Олег Басилашвили, Людмила Гурченко, Никита Михалков, Александр Ширвиндт, Нонна Мордюкова, Татьяна Догилева, Анастасия Вознесенская, Михаил Кононов, Виктор Борцов, Алла Будницкая, Ольга Волкова, Татьяна Игнатова, Алексей Коняшин, Владимир Мышкин, Нина Палладина, Александр Пятков, Эльдар Рязанов, Станислав Садальский, Анатолий Скорякин, Анна Фроловцева, Темур Юнусов, Раиса Этуш
О фильме: Город Заступинск, где-то между Москвой и Алма-Атой, ближе к Воронежу. Вокзальная буфетчица Вера и пианист Платон Рябинин из Москвы познакомились при весьма непривлекательных обстоятельствах. В результате Вера потеряла жениха с дынями, но нашла любимого, который вскоре должен отбыть в отдаленные места, чтобы нести наказание за несовершенное преступление...
Доп.информация: Исходник DVD9 "Крупный План" полная реставрация

Страна: СССР
Студия: Мосфильм
Продолжительность: 02:12:39
Перевод: Не требуется (оригинальный)
Файл
Формат: avi
Качество: DVDRip (DVD9)
Видео: XviD, 640x464, 25fps, 1430kbps
Аудио: MPEG Layer 3, 2ch, 48000Hz, 128kbps

General
Complete name : Vokzal.Dla.Dvoih.1982.O.DVDRip.1400.MediaClub.CurHaJI.avi
Format : AVI
Format/Info : Audio Video Interleave
File size : 1.45 GiB
Duration : 2h 12mn
Overall bit rate : 1 568 Kbps
Movie name : Vokzal.Dla.Dvoih.1982.O.DVDRip.1400.MediaClub.CurHaJI
Writing application : Lavf53.13.0
Writing library : VirtualDub build 35491/release
Video
ID : 0
Format : MPEG-4 Visual
Format profile : Advanced Simple@L5
Format settings, BVOP : 2
Format settings, QPel : No
Format settings, GMC : No warppoints
Format settings, Matrix : Custom
Codec ID : XVID
Codec ID/Hint : XviD
Duration : 2h 12mn
Bit rate : 1 430 Kbps
Width : 640 pixels
Height : 464 pixels
Display aspect ratio : 1.379
Frame rate : 25.000 fps
Color space : YUV
Chroma subsampling : 4:2:0
Bit depth : 8 bits
Scan type : Progressive
Compression mode : Lossy
Bits/(Pixel*Frame) : 0.193
Stream size : 1.32 GiB (91%)
Writing library : XviD 64
Audio
ID : 1
Format : MPEG Audio
Format version : Version 1
Format profile : Layer 3
Codec ID : 55
Codec ID/Hint : MP3
Duration : 2h 12mn
Bit rate mode : Constant
Bit rate : 128 Kbps
Channel(s) : 2 channels
Sampling rate : 48.0 KHz
Compression mode : Lossy
Stream size : 121 MiB (8%)
Alignment : Split accross interleaves
Interleave, duration : 40 ms (1.00 video frame)
Interleave, preload duration : 500 ms
Writing library : L3.99r
Encoding settings : -m s -V 4 -q 2 -lowpass 17 -b 128

Каннский кинофестиваль, 1983 год
Номинации (1):
Золотая пальмовая ветвь
Участие в Основной конкурсной программе (Эльдар Рязанов)
Всесоюзный XVI кинофестиваль в Ленинграде, 1983 год
Победитель (2):
Приз за женскую роль (Людмила Гурченко)
Приз за вклад в развитие советской кинокомедии (Эльдар Рязанов)
Всесоюзный кинофестиваль в Риге, 1983 год
Победитель (2):
Приз за лучшую женскую роль (Людмила Гурченко)
Приз за лучшую режиссуру (Эльдар Рязанов)
Ассоциация критиков "Варшавская сирена". 1984 год
Победитель (1):
Приз критики лучшему зарубежному фильму года в Польше (Эльдар Рязанов)
Опрос журнала «Советский экран». 1983 год
Победитель (2):
Лучший фильм года (Эльдар Рязанов)
Лучшая актриса года (Людмила Гурченко)
Участие в кинофестивалях:
1983 — МКФ в Каннах (Франция)
2000 — Фестиваль русского кино в Онфлёре (Франция)
2004 — КФ русских фильмов «Юниверкино» в Нанте (Франция)
2007 — Русское кино в кинотеатре «Arlequin» в Париже (Франция)
2009 — КФ «Спутник над Польшей» в Варшаве (Польша)
2010 — Фестиваль «Русское возрождение» в Сиднее (Австралия)
2012 — КФ «Спутник над Польшей» в Варшаве (Польша)



Релиз от:



   Похожие торренты   Торрент   Размер 
В этой теме нет новых непрочитанных сообщений. Вокзал для двоих (1982) DVDRip от MediaClub

106 | 75

2.17 ГБ

В этой теме нет новых непрочитанных сообщений. Вокзал для двоих (1982) DVDRip от MediaClub

726 | 23

2.74 ГБ

В этой теме нет новых непрочитанных сообщений. Вокзал для двоих (1982) DVDRip-AVC

47 | 8

1.45 ГБ

В этой теме нет новых непрочитанных сообщений. Вокзал для двоих (1982) DVDRip-AVC от Youtracker

75 | 5

2.19 ГБ

В этой теме нет новых непрочитанных сообщений. Вокзал для двоих (1982) DVDRip-AVC от Youtracker

12 | 4

1.46 ГБ

В этой теме нет новых непрочитанных сообщений. Вокзал для двоих (1982) DVDRip от Youtracker

7 | 3

2.19 ГБ

В этой теме нет новых непрочитанных сообщений. Вокзал для двоих (1982) DVDRip от Youtracker

66 | 15

1.45 ГБ




Вы не можете начинать темы
Вы не можете отвечать на сообщения
Вы не можете редактировать свои сообщения
Вы не можете удалять свои сообщения
Вы не можете добавлять вложения

Перейти:  
Для Мосгорсуда, Роскомнадзора и рекламодателей: mosgorsud-torrent[собачка]yandex.ru
 Вход
ppkBB3cker v.2 © 2008-2014 @ PPK
[ Time : 0.051s | 14 Queries | GZIP : Off ]

Торрент трекер RUTOR.IN, Не можете зайти на rutor.org? Какой новый адрес рутор? Какое зеркало рутор? Не работает rutor.org и зеркала? Тогда наш торрент специально для вас. Rutor.in неофициальное зеркало rutor. В случае если у Вас заблокирован rutor или вдруг Вы не можете на него зайти, то Вы без труда сможете скачать бесплатно и без рекламы последние новинки кино, игр, сериалов и прочего у нас, на Rutor.in. Не нужно использовать прокси, чтобы зайти на рутор, достаточно воспользоваться нашим ресурсом. Все новые фильмы, игры, сериалы, книги и музыка за 2013 и 2014 годы через торрент бесплатно. Скачивайте фильмы в хорошем качестве, игры для пк, xbox, playstation без регистрации. У нас вы найдете новые Зарубежные сериалы и Русские сериалы 2013, 2014, 2015 годов. Оставайтесь с нами, качайте любимые фильмы, игры, сериалы, книги и музыку.